<?xml version="1.0" standalone="no"?><!DOCTYPE svg PUBLIC "-//W3C//DTD SVG 1.1//EN" "http://www.w3.org/Graphics/SVG/1.1/DTD/svg11.dtd" ><svg xmlns="http://www.w3.org/2000/svg"><metadata>Generated by IcoMoon</metadata><defs><font id="icomoon" horiz-adv-x="1024"><font-face units-per-em="1024" ascent="960" descent="-64" /><missing-glyph horiz-adv-x="1024" /><glyph unicode="&#x20;" horiz-adv-x="512" d="" /><glyph unicode="&#xe900;" d="M801.202 426.667c-91.643-91.643-240.226-91.643-331.869 0s-91.643 240.226 0 331.869c91.643 91.643 240.226 91.643 331.869 0s91.643-240.226 0-331.869zM695.607 532.261c33.325 33.325 33.325 87.355 0 120.68s-87.355 33.325-120.68 0c-33.325-33.325-33.325-87.355 0-120.68s87.355-33.325 120.68 0zM665.438 562.431c16.662 16.662 16.662 43.677 0 60.34s-43.677 16.662-60.34 0c-16.662-16.662-16.662-43.677 0-60.34s43.677-16.662 60.34 0z" /><glyph unicode="&#xe901;" d="M152.549 260.732l301.699 301.699c49.987 49.987 131.032 49.987 181.019 0s49.987-131.032 0-181.019l-301.699-301.699c-49.987-49.987-131.032-49.987-181.019 0s-49.987 131.032 0 181.019z" /><glyph unicode="&#xe902;" d="M872.101 385.938c-141.461-99.531-323.468-98.911-432.937 10.559s-110.090 291.476-10.559 432.937l443.496-443.496z" /><glyph unicode="&#xe903;" d="M650.353 284.654l271.529 271.529 60.34-60.34-271.529-271.529-60.34 60.34zM77.125 254.484l422.378 422.378c16.662 16.662 43.677 16.662 60.34 0l60.34-60.34c16.662-16.662 16.662-43.677 0-60.34l-422.378-422.378c-16.662-16.662-43.677-16.662-60.34 0l-60.34 60.34c-16.662 16.662-16.662 43.677 0 60.34zM680.523 797.542l60.34-60.34c16.662-16.662 16.662-43.677 0-60.34l-30.17-30.17c-16.662-16.662-43.677-16.662-60.34 0l-60.34 60.34c-16.662 16.662-16.662 43.677 0 60.34l30.17 30.17c16.662 16.662 43.677 16.662 60.34 0z" /><glyph unicode="&#xe904;" d="M891.712 586.353c-110.623 30.17-181.019 60.34-211.189 90.51s-90.51 90.51-181.019 181.019l-150.849-150.849c80.453-80.453 140.793-140.793 181.019-181.019s70.396-110.623 90.51-211.189l271.529 271.529z" /><glyph unicode="&#xe905;" d="M685.127 741.737l90.51-90.51-105.595-196.104 196.104 105.595 75.425-75.425c8.331-8.331 8.331-21.839 0-30.17l-226.274-226.274-422.378 422.378 226.274 226.274c8.331 8.331 21.839 8.331 30.17 0l75.425-75.425-30.17-90.51 90.51 30.17z" /><glyph unicode="&#xe906;" d="M433.49 269.297l-140.44-200.627c-27.026-38.609-80.234-47.998-118.843-20.972-4.073 2.851-7.889 6.052-11.404 9.568l-40.873 40.873c-33.325 33.325-33.325 87.355 0 120.68 3.679 3.679 7.686 7.013 11.972 9.962l201.484 138.62-132.976 132.976c-16.662 16.662-16.662 43.677 0 60.34l60.34 60.34 422.378-422.378-60.34-60.34c-16.662-16.662-43.677-16.662-60.34 0l-130.958 130.958zM202.409 138.339c16.662-16.662 43.677-16.662 60.34 0s16.662 43.677 0 60.34c-16.662 16.662-43.677 16.662-60.34 0s-16.662-43.677 0-60.34z" /><glyph unicode="&#xe907;" d="M301.971 435.027c27.605-32.749 62.421-59.221 102-76.969l-190.638-379.392-21.333 213.333 109.971 243.027zM622.36 351.582c40.337 15.27 76.325 39.389 105.594 69.988l104.047-229.57-21.333-213.333-188.307 372.916zM512 960c35.346 0 64-28.654 64-64v-106.667h-128v106.667c0 35.346 28.654 64 64 64z" /><glyph unicode="&#xe908;" d="M512 533.333c47.128 0 85.333 38.205 85.333 85.333s-38.205 85.333-85.333 85.333c-47.128 0-85.333-38.205-85.333-85.333s38.205-85.333 85.333-85.333zM512 405.333c-117.821 0-213.333 95.513-213.333 213.333s95.513 213.333 213.333 213.333c117.821 0 213.333-95.513 213.333-213.333s-95.513-213.333-213.333-213.333z" /><glyph unicode="&#xe909;" d="M149.961 163.974l422.378 422.378c16.662 16.662 43.677 16.662 60.34 0l60.34-60.34c16.662-16.662 16.662-43.677 0-60.34l-422.378-422.378c-16.662-16.662-43.677-16.662-60.34 0l-60.34 60.34c-16.662 16.662-16.662 43.677 0 60.34z" /><glyph unicode="&#xe90a;" d="M421.49 676.862l150.849 150.849c16.662 16.662 43.677 16.662 60.34 0l301.699-301.699c16.662-16.662 16.662-43.677 0-60.34l-150.849-150.849c-16.662-16.662-43.677-16.662-60.34 0l-301.699 301.699c-16.662 16.662-16.662 43.677 0 60.34z" /><glyph unicode="&#xe90b;" d="M738.274 752.287l30.17 30.17c8.331 8.331 21.839 8.331 30.17 0l90.51-90.51c8.331-8.331 8.331-21.839 0-30.17l-30.17-30.17c-8.331-8.331-21.839-8.331-30.17 0l-90.51 90.51c-8.331 8.331-8.331 21.839 0 30.17z" /><glyph unicode="&#xe90c;" d="M786.117 420.418l120.68 120.68c8.331 8.331 21.839 8.331 30.17 0l30.17-30.17c8.331-8.331 8.331-21.839 0-30.17l-120.68-120.68c-8.331-8.331-21.839-8.331-30.17 0l-30.17 30.17c-8.331 8.331-8.331 21.839 0 30.17zM137.465 194.144l422.378 422.378c16.662 16.662 43.677 16.662 60.34 0l60.34-60.34c16.662-16.662 16.662-43.677 0-60.34l-422.378-422.378c-16.662-16.662-43.677-16.662-60.34 0l-60.34 60.34c-16.662 16.662-16.662 43.677 0 60.34z" /><glyph unicode="&#xe90d;" d="M408.994 767.372v0c83.312 83.312 218.387 83.312 301.699 0l135.765-135.765c8.331-8.331 8.331-21.839 0-30.17l-120.68-120.68c-8.331-8.331-21.839-8.331-30.17 0l-286.614 286.614z" /><glyph unicode="&#xe90e;" d="M938.667 320v-170.667c0-47.128-38.205-85.333-85.333-85.333h-512c-94.257 0-170.667 76.41-170.667 170.667s76.41 170.667 170.667 170.667h512c47.128 0 85.333-38.205 85.333-85.333zM298.667 149.333c47.128 0 85.333 38.205 85.333 85.333s-38.205 85.333-85.333 85.333c-47.128 0-85.333-38.205-85.333-85.333s38.205-85.333 85.333-85.333z" /><glyph unicode="&#xe90f;" d="M663.131 716.8l120.68-120.68c33.325-33.325 33.325-87.355 0-120.68l-362.039-362.039c-66.649-66.649-174.71-66.649-241.359 0s-66.649 174.71 0 241.359l362.039 362.039c33.325 33.325 87.355 33.325 120.68 0zM298.667 149.333c47.128 0 85.333 38.205 85.333 85.333s-38.205 85.333-85.333 85.333c-47.128 0-85.333-38.205-85.333-85.333s38.205-85.333 85.333-85.333z" /><glyph unicode="&#xe910;" d="M213.333 832h170.667c47.128 0 85.333-38.205 85.333-85.333v-512c0-94.257-76.41-170.667-170.667-170.667s-170.667 76.41-170.667 170.667v512c0 47.128 38.205 85.333 85.333 85.333zM298.667 149.333c47.128 0 85.333 38.205 85.333 85.333s-38.205 85.333-85.333 85.333c-47.128 0-85.333-38.205-85.333-85.333s38.205-85.333 85.333-85.333z" /><glyph unicode="&#xe911;" d="M633.687 576l39.51-128h-322.393l39.51 128h243.373zM594.177 704h-164.353l26.926 87.231c7.481 24.237 29.885 40.769 55.251 40.769s47.77-16.532 55.251-40.769l26.926-87.231zM712.707 320l52.68-170.667h-506.773l52.68 170.667h401.413z" /><glyph unicode="&#xe912;" d="M170.667 106.667h682.667c23.564 0 42.667-19.103 42.667-42.667s-19.103-42.667-42.667-42.667h-682.667c-23.564 0-42.667 19.103-42.667 42.667s19.103 42.667 42.667 42.667z" /><glyph unicode="&#xe913;" d="M170.667 874.667h554.667c23.564 0 42.667-19.103 42.667-42.667v-128c0-23.564-19.103-42.667-42.667-42.667h-554.667c-23.564 0-42.667 19.103-42.667 42.667v128c0 23.564 19.103 42.667 42.667 42.667z" /><glyph unicode="&#xe914;" d="M426.667 448h85.333c23.564 0 42.667-19.103 42.667-42.667v-341.333c0-23.564-19.103-42.667-42.667-42.667h-85.333c-23.564 0-42.667 19.103-42.667 42.667v341.333c0 23.564 19.103 42.667 42.667 42.667z" /><glyph unicode="&#xe915;" d="M512 448h-85.333v42.667c0 47.128 38.205 85.333 85.333 85.333h298.667v149.333h-42.667v85.333h42.667c47.128 0 85.333-38.205 85.333-85.333v-149.333c0-47.128-38.205-85.333-85.333-85.333h-298.667v-42.667z" /><glyph unicode="&#xe916;" d="M938.667 618.667c0-23.564-19.103-42.667-42.667-42.667h-85.333v-256c0-141.385-114.615-256-256-256h-341.333c-47.128 0-85.333 38.205-85.333 85.333v341.333c0 141.385 114.615 256 256 256h341.333c47.128 0 85.333-38.205 85.333-85.333h85.333v42.667h42.667v-85.333zM469.333 234.667c94.257 0 170.667 76.41 170.667 170.667s-76.41 170.667-170.667 170.667c-94.257 0-170.667-76.41-170.667-170.667s76.41-170.667 170.667-170.667z" /><glyph unicode="&#xe917;" d="M512 832h128c23.564 0 42.667-19.103 42.667-42.667v-42.667h-213.333v42.667c0 23.564 19.103 42.667 42.667 42.667z" /><glyph unicode="&#xe918;" d="M361.151 478.17l-45.255 45.255c-8.331 8.331-8.331 21.839 0 30.17l30.17 30.17c8.331 8.331 21.839 8.331 30.17 0l271.529-271.529c8.331-8.331 8.331-21.839 0-30.17l-30.17-30.17c-8.331-8.331-21.839-8.331-30.17 0l-45.255 45.255-241.359-241.359c-33.325-33.325-87.355-33.325-120.68 0l-60.34 60.34c-33.325 33.325-33.325 87.355 0 120.68l241.359 241.359zM195.216 191.556c-8.331-8.331-8.331-21.839 0-30.17s21.839-8.331 30.17 0l181.019 181.019c8.331 8.331 8.331 21.839 0 30.17s-21.839 8.331-30.17 0l-181.019-181.019z" /><glyph unicode="&#xe919;" d="M723.189 719.529l-7.293 7.293c-8.331 8.331-8.331 21.839 0 30.17 2.043 2.043 4.479 3.65 7.162 4.723l107.75 43.1c7.924 3.169 16.974 1.312 23.008-4.723l10.276-10.276c6.034-6.034 7.892-15.084 4.723-23.008l-43.1-107.75c-4.376-10.939-16.791-16.26-27.731-11.885-2.682 1.073-5.119 2.68-7.162 4.723l-7.293 7.293-241.359-241.359-60.34 60.34 241.359 241.359z" /><glyph unicode="&#xe91a;" d="M270.641 749.699l301.699-301.699-60.34-60.34-301.699 301.699h-129.516c-5.658 0-11.084 2.248-15.085 6.248-8.331 8.331-8.331 21.839 0 30.17l168.523 168.523c4.001 4.001 9.427 6.248 15.085 6.248 11.782 0 21.333-9.551 21.333-21.333v-129.516z" /><glyph unicode="&#xe91b;" d="M723.189 538.51l120.54-139.085c47.667-55.001 67.211-128.958 52.937-200.327l-17.049-85.245c-3.378-16.89-16.58-30.092-33.47-33.47l-85.245-17.049c-71.369-14.274-145.326 5.27-200.327 52.937l-139.085 120.54 301.699 301.699zM577.925 276.324c-32.571 27.56-73.911-21.297-41.34-48.857l98.052-82.967c32.571-27.56 73.911 21.297 41.34 48.857l-98.052 82.967z" /><glyph unicode="&#xe91c;" d="M623.499 906.069l325.237-325.237c8.331-8.331 8.331-21.839 0-30.17-0.993-0.993-2.082-1.886-3.251-2.665l-284.991-189.994c-74.312-49.541-173.262-39.743-236.415 23.41v0c-63.153 63.153-72.951 162.103-23.41 236.415l189.994 284.991c6.536 9.803 19.781 12.452 29.584 5.917 1.169-0.779 2.258-1.672 3.251-2.665z" /><glyph unicode="&#xe91d;" d="M350.404 394.746l87.001-87.001-75.843-161.337c-30.463-64.803-107.692-92.642-172.496-62.178-13.565 6.377-25.922 15.058-36.521 25.657-50.633 50.633-50.633 132.727 0 183.36 10.599 10.599 22.956 19.28 36.521 25.657l161.337 75.843zM195.645 152.987c24.025-24.025 62.797-24.204 86.6-0.401s23.624 62.576-0.401 86.6c-24.025 24.025-62.797 24.204-86.6 0.401s-23.624-62.576 0.401-86.6z" /><glyph unicode="&#xe91e;" d="M673.462 362.667l-119.738-119.738-219.712 219.712c-66.649 66.649-66.649 174.71 0 241.359l263.32-263.32v177.987c0 141.385 114.615 256 256 256v-512h-179.871z" /><glyph unicode="&#xe91f;" d="M234.667 448h554.667c106.039 0 192-85.961 192-192s-85.961-192-192-192h-554.667c-106.039 0-192 85.961-192 192s85.961 192 192 192zM832 192c35.346 0 64 28.654 64 64s-28.654 64-64 64c-35.346 0-64-28.654-64-64s28.654-64 64-64z" /><glyph unicode="&#xe920;" d="M680.523 797.542l-124.806-124.806c-33.325-33.325-33.325-87.355 0-120.68l60.34-60.34c33.325-33.325 87.355-33.325 120.68 0l124.806 124.806c23.113-85.1 1.587-179.432-64.761-245.78-78.047-78.047-194.816-94.072-289.731-48.372l-218.736-218.736c-33.325-33.325-87.355-33.325-120.68 0s-33.325 87.355 0 120.68l218.736 218.736c-45.7 94.915-29.675 211.684 48.372 289.731 66.348 66.348 160.68 87.874 245.78 64.761z" /><glyph unicode="&#xe921;" d="M710.692 707.032l60.34-60.34c16.662-16.662 16.662-43.677 0-60.34l-58.866-58.866c-16.662-16.662-43.677-16.662-60.34 0l-60.34 60.34c-16.662 16.662-16.662 43.677 0 60.34l58.866 58.866c16.662 16.662 43.677 16.662 60.34 0z" /><glyph unicode="&#xe922;" d="M410.353 746.667l-37.647-85.333h-244.706c-23.564 0-42.667 19.103-42.667 42.667s19.103 42.667 42.667 42.667h282.353zM613.647 746.667h282.353c23.564 0 42.667-19.103 42.667-42.667s-19.103-42.667-42.667-42.667h-244.706l-37.647 85.333zM259.765 405.333l-37.647-85.333h-94.118c-23.564 0-42.667 19.103-42.667 42.667s19.103 42.667 42.667 42.667h131.765zM764.235 405.333h131.765c23.564 0 42.667-19.103 42.667-42.667s-19.103-42.667-42.667-42.667h-94.118l-37.647 85.333zM335.059 576l-37.647-85.333h-169.412c-23.564 0-42.667 19.103-42.667 42.667s19.103 42.667 42.667 42.667h207.059zM688.941 576h207.059c23.564 0 42.667-19.103 42.667-42.667s-19.103-42.667-42.667-42.667h-169.412l-37.647 85.333zM184.471 234.667l-37.647-85.333h-18.824c-23.564 0-42.667 19.103-42.667 42.667s19.103 42.667 42.667 42.667h56.471zM839.529 234.667h56.471c23.564 0 42.667-19.103 42.667-42.667s-19.103-42.667-42.667-42.667h-18.824l-37.647 85.333z" /><glyph unicode="&#xe923;" d="M471.211 735.744h83.712l234.411-586.411h-106.667l-54.784 167.083h-235.776l-72.107-167.083h-106.667l257.877 586.411zM594.091 399.36l-83.712 221.184-85.248-221.184h168.96z" /><glyph unicode="&#xe924;" d="M213.333 746.667h597.333c23.564 0 42.667-19.103 42.667-42.667s-19.103-42.667-42.667-42.667h-597.333c-23.564 0-42.667 19.103-42.667 42.667s19.103 42.667 42.667 42.667zM213.333 405.333h597.333c23.564 0 42.667-19.103 42.667-42.667s-19.103-42.667-42.667-42.667h-597.333c-23.564 0-42.667 19.103-42.667 42.667s19.103 42.667 42.667 42.667z" /><glyph unicode="&#xe925;" d="M341.333 576h341.333c23.564 0 42.667-19.103 42.667-42.667s-19.103-42.667-42.667-42.667h-341.333c-23.564 0-42.667 19.103-42.667 42.667s19.103 42.667 42.667 42.667zM341.333 234.667h341.333c23.564 0 42.667-19.103 42.667-42.667s-19.103-42.667-42.667-42.667h-341.333c-23.564 0-42.667 19.103-42.667 42.667s19.103 42.667 42.667 42.667z" /><glyph unicode="&#xe926;" d="M213.333 746.667h597.333c23.564 0 42.667-19.103 42.667-42.667s-19.103-42.667-42.667-42.667h-597.333c-23.564 0-42.667 19.103-42.667 42.667s19.103 42.667 42.667 42.667zM213.333 405.333h597.333c23.564 0 42.667-19.103 42.667-42.667s-19.103-42.667-42.667-42.667h-597.333c-23.564 0-42.667 19.103-42.667 42.667s19.103 42.667 42.667 42.667z" /><glyph unicode="&#xe927;" d="M213.333 576h597.333c23.564 0 42.667-19.103 42.667-42.667s-19.103-42.667-42.667-42.667h-597.333c-23.564 0-42.667 19.103-42.667 42.667s19.103 42.667 42.667 42.667zM213.333 234.667h597.333c23.564 0 42.667-19.103 42.667-42.667s-19.103-42.667-42.667-42.667h-597.333c-23.564 0-42.667 19.103-42.667 42.667s19.103 42.667 42.667 42.667z" /><glyph unicode="&#xe928;" d="M213.333 746.667h597.333c23.564 0 42.667-19.103 42.667-42.667s-19.103-42.667-42.667-42.667h-597.333c-23.564 0-42.667 19.103-42.667 42.667s19.103 42.667 42.667 42.667z" /><glyph unicode="&#xe929;" d="M213.333 405.333h597.333c23.564 0 42.667-19.103 42.667-42.667s-19.103-42.667-42.667-42.667h-597.333c-23.564 0-42.667 19.103-42.667 42.667s19.103 42.667 42.667 42.667z" /><glyph unicode="&#xe92a;" d="M213.333 576h341.333c23.564 0 42.667-19.103 42.667-42.667s-19.103-42.667-42.667-42.667h-341.333c-23.564 0-42.667 19.103-42.667 42.667s19.103 42.667 42.667 42.667zM213.333 234.667h341.333c23.564 0 42.667-19.103 42.667-42.667s-19.103-42.667-42.667-42.667h-341.333c-23.564 0-42.667 19.103-42.667 42.667s19.103 42.667 42.667 42.667z" /><glyph unicode="&#xe92b;" d="M213.333 746.667h597.333c23.564 0 42.667-19.103 42.667-42.667s-19.103-42.667-42.667-42.667h-597.333c-23.564 0-42.667 19.103-42.667 42.667s19.103 42.667 42.667 42.667zM213.333 405.333h597.333c23.564 0 42.667-19.103 42.667-42.667s-19.103-42.667-42.667-42.667h-597.333c-23.564 0-42.667 19.103-42.667 42.667s19.103 42.667 42.667 42.667z" /><glyph unicode="&#xe92c;" d="M469.333 576h341.333c23.564 0 42.667-19.103 42.667-42.667s-19.103-42.667-42.667-42.667h-341.333c-23.564 0-42.667 19.103-42.667 42.667s19.103 42.667 42.667 42.667zM469.333 234.667h341.333c23.564 0 42.667-19.103 42.667-42.667s-19.103-42.667-42.667-42.667h-341.333c-23.564 0-42.667 19.103-42.667 42.667s19.103 42.667 42.667 42.667z" /><glyph unicode="&#xe92d;" d="M234.667 746.667h554.667c35.346 0 64-28.654 64-64s-28.654-64-64-64h-554.667c-35.346 0-64 28.654-64 64s28.654 64 64 64z" /><glyph unicode="&#xe92e;" d="M234.667 320h554.667c35.346 0 64-28.654 64-64s-28.654-64-64-64h-554.667c-35.346 0-64 28.654-64 64s28.654 64 64 64zM234.667 533.333h298.667c35.346 0 64-28.654 64-64s-28.654-64-64-64h-298.667c-35.346 0-64 28.654-64 64s28.654 64 64 64z" /><glyph unicode="&#xe92f;" glyph-name="Bold" d="M313.173 149.333v605.867h227.84c98.987 0 180.053-81.067 180.053-180.053 0-42.667-16.213-77.653-42.667-104.107 51.2-27.307 85.333-76.8 85.333-141.653 0-99.84-81.067-180.053-183.467-180.053h-267.093zM449.707 274.773h117.76c36.693 0 63.147 26.453 63.147 59.733s-26.453 60.587-63.147 60.587h-117.76v-120.32zM449.707 510.293h75.947c36.693 0 63.147 26.453 63.147 59.733s-26.453 60.587-63.147 60.587h-75.947v-120.32z" /><glyph unicode="&#xe930;" d="M448 746.667h384c35.346 0 64-28.654 64-64s-28.654-64-64-64h-384c-35.346 0-64 28.654-64 64s28.654 64 64 64zM448 533.333h384c35.346 0 64-28.654 64-64s-28.654-64-64-64h-384c-35.346 0-64 28.654-64 64s28.654 64 64 64zM448 320h384c35.346 0 64-28.654 64-64s-28.654-64-64-64h-384c-35.346 0-64 28.654-64 64s28.654 64 64 64z" /><glyph unicode="&#xe931;" d="M234.667 618.667c-35.346 0-64 28.654-64 64s28.654 64 64 64c35.346 0 64-28.654 64-64s-28.654-64-64-64zM234.667 405.333c-35.346 0-64 28.654-64 64s28.654 64 64 64c35.346 0 64-28.654 64-64s-28.654-64-64-64zM234.667 192c-35.346 0-64 28.654-64 64s28.654 64 64 64c35.346 0 64-28.654 64-64s-28.654-64-64-64z" /><glyph unicode="&#xe932;" glyph-name="Code" d="M651.597 589.424c-16.15 17.159-15.332 44.162 1.828 60.312s44.162 15.332 60.312-1.828l170.667-181.333c15.462-16.429 15.462-42.056 0-58.484l-170.667-181.333c-16.15-17.159-43.153-17.978-60.312-1.828s-17.978 43.153-1.828 60.312l143.145 152.091-143.145 152.091zM372.403 589.424l-143.145-152.091 143.145-152.091c16.15-17.159 15.332-44.162-1.828-60.312s-44.162-15.332-60.312 1.828l-170.667 181.333c-15.462 16.429-15.462 42.056 0 58.484l170.667 181.333c16.15 17.159 43.153 17.978 60.312 1.828s17.978-43.153 1.828-60.312z" /><glyph unicode="&#xe933;" d="M128 149.333h85.333v-85.333h-85.333v85.333zM341.333 149.333h85.333v-85.333h-85.333v85.333zM554.667 149.333h85.333v-85.333h-85.333v85.333zM768 149.333h85.333v-85.333h-85.333v85.333z" /><glyph unicode="&#xe934;" d="M448.171 821.077h83.712l234.24-543.744h-110.592l-50.688 124.416h-235.776l-49.152-124.416h-108.288l236.544 543.744zM571.051 484.693l-83.712 221.184-85.248-221.184h168.96z" /><glyph unicode="&#xe935;" glyph-name="Filter" d="M213.333 789.333h597.333c11.782 0 21.333-9.551 21.333-21.333 0-4.616-1.497-9.107-4.267-12.8l-230.4-307.2v-349.482c0-11.782-9.551-21.333-21.333-21.333-3.312 0-6.578 0.771-9.541 2.252l-139.793 69.896v298.667l-230.4 307.2c-7.069 9.426-5.159 22.797 4.267 29.867 3.693 2.77 8.184 4.267 12.8 4.267z" /><glyph unicode="&#xe936;" d="M7.68 149.333l295.253 612.693 295.253-612.693h-83.627l-75.093 158.72h-273.067l-75.093-158.72h-83.627zM302.933 596.48l-102.4-216.747h204.8l-102.4 216.747z" /><glyph unicode="&#xe937;" d="M910.507 149.333v42.667c-35.84-32.427-83.627-49.493-135.68-49.493-125.44 0-217.6 96.427-217.6 220.16s92.16 220.16 217.6 220.16c52.053 0 99.84-17.067 135.68-49.493v42.667h73.387v-426.667h-73.387zM776.533 211.627c61.44 0 109.227 29.013 133.973 69.12v163.84c-24.747 40.107-72.533 69.12-133.973 69.12-83.627 0-143.36-66.56-143.36-151.040s59.733-151.040 143.36-151.040z" /><glyph unicode="&#xe938;" d="M197.717 149.333v575.573h73.771v-245.632h317.781v245.632h73.771v-575.573h-73.771v258.603h-317.781v-258.603z" /><glyph unicode="&#xe939;" d="M810.581 149.333v512.341l69.717 69.717v-582.059z" /><glyph unicode="&#xe93a;" d="M69.717 149.333v575.573h73.771v-245.632h317.781v245.632h73.771v-575.573h-73.771v258.603h-317.781v-258.603z" /><glyph unicode="&#xe93b;" d="M625.024 149.333l222.933 242.389c-9.728-1.621-17.024-2.432-26.752-2.432-98.091 2.432-166.997 77.824-166.997 169.429 0 97.28 76.203 172.672 174.293 172.672s175.104-75.392 175.104-172.672c0-68.096-29.995-121.6-99.712-196.992l-132.949-147.541h232.661v-64.853h-378.581zM828.501 450.091c61.611 0 106.197 46.208 106.197 108.629 0 61.611-44.587 108.629-106.197 108.629-62.421 0-105.387-47.019-105.387-108.629 0-62.421 42.965-108.629 105.387-108.629z" /><glyph unicode="&#xe93c;" glyph-name="Itallic" d="M426.667 149.333l128 597.333h85.333l-128-597.333z" /><glyph unicode="&#xe93d;" d="M234.667 746.667h554.667c35.346 0 64-28.654 64-64s-28.654-64-64-64h-554.667c-35.346 0-64 28.654-64 64s28.654 64 64 64z" /><glyph unicode="&#xe93e;" d="M234.667 320h554.667c35.346 0 64-28.654 64-64s-28.654-64-64-64h-554.667c-35.346 0-64 28.654-64 64s28.654 64 64 64zM234.667 533.333h554.667c35.346 0 64-28.654 64-64s-28.654-64-64-64h-554.667c-35.346 0-64 28.654-64 64s28.654 64 64 64z" /><glyph unicode="&#xe93f;" glyph-name="Paragraph" d="M458.837 112.469v312.491c-111.104 0-201.6 90.496-201.6 201.6s90.496 201.6 201.6 201.6h237.44v-715.691h-69.888v645.803h-96.768v-645.803h-70.784z" /><glyph unicode="&#xe940;" d="M469.333 661.333l-85.333-256h85.333v-213.333h-213.333v213.333l85.333 256z" /><glyph unicode="&#xe941;" d="M810.667 661.333l-85.333-256h85.333v-213.333h-213.333v213.333l85.333 256z" /><glyph unicode="&#xe942;" d="M597.333 192l85.333 256h-85.333v213.333h213.333v-213.333l-85.333-256z" /><glyph unicode="&#xe943;" d="M256 192l85.333 256h-85.333v213.333h213.333v-213.333l-85.333-256z" /><glyph unicode="&#xe944;" glyph-name="Redo" d="M130.765 200.917c0 35-7.5 173.125 101.458 282.708 73.333 73.75 183.083 86.542 314.333 92.375v183.762c0 17.673 14.327 32 32 32 7.949 0 15.614-2.959 21.501-8.3l304.643-276.38c13.089-11.875 14.074-32.112 2.199-45.201-0.623-0.687-1.276-1.347-1.957-1.977l-304.643-282.132c-12.967-12.009-33.213-11.232-45.222 1.735-5.478 5.915-8.522 13.681-8.522 21.743v182.75c-83.333-2.292-142.693-7.592-196.625-24.75-77.655-24.705-137.667-94.795-180.038-210.272h0.001c-4.624-12.601-16.62-20.978-30.042-20.978h-9.295c0 21.042 0.208 54.375 0.208 72.917z" /><glyph unicode="&#xe945;" d="M213.333 490.667h640c23.564 0 42.667-19.103 42.667-42.667s-19.103-42.667-42.667-42.667h-640c-23.564 0-42.667 19.103-42.667 42.667s19.103 42.667 42.667 42.667z" /><glyph unicode="&#xe946;" d="M514.56 142.507c-87.893 0-161.28 42.667-197.12 93.867l58.88 51.2c29.013-37.547 78.507-70.827 137.387-70.827 69.973 0 114.347 32.427 114.347 85.333 0 55.467-34.133 84.48-98.987 112.64l-55.467 23.893c-92.16 39.253-132.267 95.573-132.267 171.52 0 92.16 87.040 151.893 176.64 151.893 70.827 0 128.853-28.16 169.813-77.653l-54.613-54.613c-31.573 37.547-64.853 58.027-117.76 58.027-51.2 0-96.427-29.013-96.427-79.36 0-44.373 25.6-74.24 89.6-102.4l55.467-23.893c81.92-35.84 142.507-86.187 142.507-171.52 0-98.987-73.387-168.107-192-168.107z" /><glyph unicode="&#xe947;" glyph-name="Text" d="M576 618.667v-426.667c0-23.564-19.103-42.667-42.667-42.667h-42.667c-23.564 0-42.667 19.103-42.667 42.667v426.667h-149.333c-23.564 0-42.667 19.103-42.667 42.667v42.667c0 23.564 19.103 42.667 42.667 42.667h426.667c23.564 0 42.667-19.103 42.667-42.667v-42.667c0-23.564-19.103-42.667-42.667-42.667h-149.333z" /><glyph unicode="&#xe948;" d="M362.667 618.667v-426.667c0-23.564-19.103-42.667-42.667-42.667h-42.667c-23.564 0-42.667 19.103-42.667 42.667v426.667h-149.333c-23.564 0-42.667 19.103-42.667 42.667v42.667c0 23.564 19.103 42.667 42.667 42.667h426.667c23.564 0 42.667-19.103 42.667-42.667v-42.667c0-23.564-19.103-42.667-42.667-42.667h-149.333z" /><glyph unicode="&#xe949;" d="M853.333 252.34l55.163 55.163c16.662 16.662 43.677 16.662 60.34 0s16.662-43.677 0-60.34l-128-128c-16.662-16.662-43.677-16.662-60.34 0l-128 128c-16.662 16.662-16.662 43.677 0 60.34s43.677 16.662 60.34 0l55.163-55.163v391.32l-55.163-55.163c-16.662-16.662-43.677-16.662-60.34 0s-16.662 43.677 0 60.34l128 128c16.662 16.662 43.677 16.662 60.34 0l128-128c16.662-16.662 16.662-43.677 0-60.34s-43.677-16.662-60.34 0l-55.163 55.163v-391.32z" /><glyph unicode="&#xe94a;" d="M576 789.333v-426.667c0-23.564-19.103-42.667-42.667-42.667h-42.667c-23.564 0-42.667 19.103-42.667 42.667v426.667h-149.333c-23.564 0-42.667 19.103-42.667 42.667v42.667c0 23.564 19.103 42.667 42.667 42.667h426.667c23.564 0 42.667-19.103 42.667-42.667v-42.667c0-23.564-19.103-42.667-42.667-42.667h-149.333z" /><glyph unicode="&#xe94b;" d="M273.673 106.667l55.163-55.163c16.662-16.662 16.662-43.677 0-60.34s-43.677-16.662-60.34 0l-128 128c-16.662 16.662-16.662 43.677 0 60.34l128 128c16.662 16.662 43.677 16.662 60.34 0s16.662-43.677 0-60.34l-55.163-55.163h476.654l-55.163 55.163c-16.662 16.662-16.662 43.677 0 60.34s43.677 16.662 60.34 0l128-128c16.662-16.662 16.662-43.677 0-60.34l-128-128c-16.662-16.662-43.677-16.662-60.34 0s-16.662 43.677 0 60.34l55.163 55.163h-476.654z" /><glyph unicode="&#xe94c;" d="M517.12 142.507c-142.507 0-244.053 93.013-244.053 242.347v370.347h98.987v-372.907c0-93.867 58.88-145.92 145.067-145.92s144.213 52.053 144.213 145.92v372.907h98.987v-370.347c0-149.333-100.693-242.347-243.2-242.347z" /><glyph unicode="&#xe94d;" d="M213.333 64h597.333c23.564 0 42.667-19.103 42.667-42.667s-19.103-42.667-42.667-42.667h-597.333c-23.564 0-42.667 19.103-42.667 42.667s19.103 42.667 42.667 42.667z" /><glyph unicode="&#xe94e;" glyph-name="Undo" d="M914.992 200.917c0 35 7.5 173.125-101.458 282.708-73.333 73.75-183.083 86.542-314.333 92.375v183.762c0 17.673-14.327 32-32 32-7.949 0-15.614-2.959-21.501-8.3l-304.643-276.38c-13.089-11.875-14.074-32.112-2.199-45.201 0.623-0.687 1.276-1.347 1.957-1.977l304.643-282.132c12.967-12.009 33.213-11.232 45.222 1.735 5.478 5.915 8.522 13.681 8.522 21.743v182.75c83.333-2.292 142.693-7.592 196.625-24.75 77.655-24.705 137.667-94.795 180.038-210.272h-0.001c4.624-12.601 16.62-20.978 30.042-20.978h9.295c0 21.042-0.208 54.375-0.208 72.917z" /><glyph unicode="&#xe94f;" d="M128 789.333h768c23.564 0 42.667-19.103 42.667-42.667v-128c0-23.564-19.103-42.667-42.667-42.667h-768c-23.564 0-42.667 19.103-42.667 42.667v128c0 23.564 19.103 42.667 42.667 42.667z" /><glyph unicode="&#xe950;" d="M213.333 661.333h128v-597.333h-42.667c-47.128 0-85.333 38.205-85.333 85.333v512zM810.667 661.333v-512c0-47.128-38.205-85.333-85.333-85.333h-256v597.333h341.333z" /><glyph unicode="&#xe951;" d="M597.333 576v42.667c0 47.128-38.205 85.333-85.333 85.333s-85.333-38.205-85.333-85.333v-42.667h-85.333v42.667c0 94.257 76.41 170.667 170.667 170.667s170.667-76.41 170.667-170.667v-42.667h-85.333zM597.333 576v42.667c0 47.128-38.205 85.333-85.333 85.333s-85.333-38.205-85.333-85.333v-42.667h-85.333v42.667c0 94.257 76.41 170.667 170.667 170.667s170.667-76.41 170.667-170.667v-42.667h-85.333z" /><glyph unicode="&#xe952;" d="M292.144 576h439.712c20.857 0 38.657-15.079 42.086-35.652l62.831-376.986c7.748-46.487-23.656-90.453-70.144-98.201-4.636-0.773-9.328-1.161-14.029-1.161h-481.201c-47.128 0-85.333 38.205-85.333 85.333 0 4.7 0.388 9.392 1.161 14.029l62.831 376.986c3.429 20.573 21.229 35.652 42.086 35.652z" /><glyph unicode="&#xe953;" d="M253.564 789.333h516.872c22.591 0 41.266-17.609 42.593-40.161l34.99-594.828c2.767-47.047-33.128-87.43-80.175-90.197-1.669-0.098-3.34-0.147-5.011-0.147h-501.666c-47.128 0-85.333 38.205-85.333 85.333 0 1.671 0.049 3.342 0.147 5.011l34.99 594.828c1.327 22.552 20.002 40.161 42.593 40.161z" /><glyph unicode="&#xe954;" d="M298.667 661.333h85.333c0-70.692 57.308-128 128-128s128 57.308 128 128h85.333c0-117.821-95.513-213.333-213.333-213.333s-213.333 95.513-213.333 213.333z" /><glyph unicode="&#xe955;" d="M554.667 746.667h85.333v-640h-85.333v640zM213.333 746.667v-640h-85.333c-23.564 0-42.667 19.103-42.667 42.667v554.667c0 23.564 19.103 42.667 42.667 42.667h85.333zM682.667 746.667h85.333v-640h-85.333v640zM853.333 746.667h42.667c23.564 0 42.667-19.103 42.667-42.667v-554.667c0-23.564-19.103-42.667-42.667-42.667h-42.667v640z" /><glyph unicode="&#xe956;" d="M384 746.667v-640h-85.333v640z" /><glyph unicode="&#xe957;" d="M170.667 789.333h341.333v-682.667h-341.333v682.667z" /><glyph unicode="&#xe958;" d="M256 192h128c28.444-4.88 42.667-19.103 42.667-42.667s-14.222-37.786-42.667-42.667h-213.333v213.333c0 28.444 14.222 42.667 42.667 42.667s42.667-14.222 42.667-42.667v-128zM768 192v128c4.88 28.444 19.103 42.667 42.667 42.667s37.786-14.222 42.667-42.667v-213.333h-213.333c-28.444 0-42.667 14.222-42.667 42.667s14.222 42.667 42.667 42.667h128zM768 704h-128c-28.444 4.88-42.667 19.103-42.667 42.667s14.222 37.786 42.667 42.667h213.333v-213.333c0-28.444-14.222-42.667-42.667-42.667s-42.667 14.222-42.667 42.667v128zM256 704v-128c-4.88-28.444-19.103-42.667-42.667-42.667s-37.786 14.222-42.667 42.667v213.333h213.333c28.444 0 42.667-14.222 42.667-42.667s-14.222-42.667-42.667-42.667h-128z" /><glyph unicode="&#xe959;" d="M640 576h-85.333v170.667h85.333v-170.667zM640 320v-213.333h-85.333v213.333h85.333zM213.333 576h-128v128c0 23.564 19.103 42.667 42.667 42.667h85.333v-170.667zM213.333 320v-213.333h-85.333c-23.564 0-42.667 19.103-42.667 42.667v170.667h128zM768 576h-85.333v170.667h85.333v-170.667zM768 320v-213.333h-85.333v213.333h85.333zM938.667 576h-85.333v170.667h42.667c23.564 0 42.667-19.103 42.667-42.667v-128zM938.667 320v-170.667c0-23.564-19.103-42.667-42.667-42.667h-42.667v213.333h85.333z" /><glyph unicode="&#xe95a;" d="M384 576h-85.333v170.667h85.333v-170.667zM384 320v-213.333h-85.333v213.333h85.333z" /><glyph unicode="&#xe95b;" d="M42.667 490.667h938.667c23.564 0 42.667-19.103 42.667-42.667s-19.103-42.667-42.667-42.667h-938.667c-23.564 0-42.667 19.103-42.667 42.667s19.103 42.667 42.667 42.667z" /><glyph unicode="&#xe95c;" d="M512 874.667c23.564 0 42.667-19.103 42.667-42.667v-128c0-23.564-19.103-42.667-42.667-42.667s-42.667 19.103-42.667 42.667v128c0 23.564 19.103 42.667 42.667 42.667z" /><glyph unicode="&#xe95d;" d="M512 277.333c23.564 0 42.667-19.103 42.667-42.667v-128c0-23.564-19.103-42.667-42.667-42.667s-42.667 19.103-42.667 42.667v128c0 23.564 19.103 42.667 42.667 42.667z" /><glyph unicode="&#xe95e;" d="M762.667 358.997c0-31.346-6.215-57.692-18.645-79.040s-28.914-38.507-49.451-51.477c-20.537-12.971-43.911-22.293-70.123-27.968s-53.099-8.512-80.661-8.512h-245.12v573.952h245.12c22.158 0 44.857-2.297 68.096-6.891s44.316-12.43 63.232-23.509c18.916-11.079 34.318-26.076 46.208-44.992s17.835-42.965 17.835-72.149c0-31.886-8.647-58.233-25.941-79.040s-39.993-35.804-68.096-44.992c16.213-4.324 31.481-9.323 45.803-16.619s26.752-16.619 37.291-27.968c10.539-11.349 18.916-24.59 25.131-39.723s9.323-32.156 9.323-51.072zM605.397 599.765c0 19.456-7.431 33.643-22.293 42.56s-36.885 13.376-66.069 13.376h-68.096v-118.357h74.581c25.941 0 46.073 5.269 60.395 15.808s21.483 26.076 21.483 46.613zM624.043 371.968c0 23.78-8.917 40.263-26.752 49.451s-41.614 13.781-71.339 13.781h-77.013v-131.328h77.824c10.809 0 22.023 0.946 33.643 2.837s22.158 5.269 31.616 10.133c9.458 4.864 17.159 11.755 23.104 20.672s8.917 20.402 8.917 34.453z" /><glyph unicode="&#xe95f;" d="M256 832h512l85.333-149.333h-682.667z" /><glyph unicode="&#xe960;" d="M256 746.667h512c47.128 0 85.333-38.205 85.333-85.333v-512c0-47.128-38.205-85.333-85.333-85.333h-512c-47.128 0-85.333 38.205-85.333 85.333v512c0 47.128 38.205 85.333 85.333 85.333zM384 576c-23.564 0-42.667-19.103-42.667-42.667s19.103-42.667 42.667-42.667h256c23.564 0 42.667 19.103 42.667 42.667s-19.103 42.667-42.667 42.667h-256z" /><glyph unicode="&#xe961;" d="M170.667 547.212l293.558-169.486c3.161-1.825 6.476-3.143 9.85-3.98v-328.709l-282.471 167.167c-12.977 7.68-20.937 21.639-20.937 36.718v298.29zM853.333 551.718v-302.795c0-15.079-7.96-29.039-20.937-36.718l-282.471-167.167v331.589c0.688 0.344 1.37 0.71 2.045 1.1l301.362 173.991z" /><glyph unicode="&#xe962;" d="M179.888 629.474c3.586 4.528 8.112 8.355 13.388 11.165l298.667 159.076c12.538 6.678 27.577 6.678 40.115 0l298.667-159.076c4.067-2.166 7.689-4.937 10.777-8.167l-327.456-189.057c-2.153-1.243-4.138-2.666-5.948-4.237-1.809 1.572-3.794 2.994-5.948 4.237l-322.263 186.058z" /><glyph unicode="&#xe963;" d="M870.662 672.595c15.408-6.848 25.338-22.128 25.338-38.989v-373.834c0-15.495-8.401-29.772-21.946-37.297l-341.333-189.63c-12.886-7.159-28.555-7.159-41.442 0l-341.333 189.63c-13.545 7.525-21.946 21.802-21.946 37.297v373.834c0 16.861 9.93 32.141 25.338 38.989l341.333 151.704c11.032 4.903 23.625 4.903 34.657 0l341.333-151.704z" /><glyph unicode="&#xe964;" d="M638.598 779.758l-314.332-174.629v-195.772l85.333-42.667v188.228l326.616 181.454z" /><glyph unicode="&#xe965;" d="M298.667 789.333h426.667v-170.667h-426.667v170.667z" /><glyph unicode="&#xe966;" d="M298.667 874.667h426.667c47.128 0 85.333-38.205 85.333-85.333v-682.667c0-47.128-38.205-85.333-85.333-85.333h-426.667c-47.128 0-85.333 38.205-85.333 85.333v682.667c0 47.128 38.205 85.333 85.333 85.333zM341.333 448c23.564 0 42.667 19.103 42.667 42.667s-19.103 42.667-42.667 42.667c-23.564 0-42.667-19.103-42.667-42.667s19.103-42.667 42.667-42.667zM341.333 277.333c23.564 0 42.667 19.103 42.667 42.667s-19.103 42.667-42.667 42.667c-23.564 0-42.667-19.103-42.667-42.667s19.103-42.667 42.667-42.667zM512 448c23.564 0 42.667 19.103 42.667 42.667s-19.103 42.667-42.667 42.667c-23.564 0-42.667-19.103-42.667-42.667s19.103-42.667 42.667-42.667zM512 277.333c23.564 0 42.667 19.103 42.667 42.667s-19.103 42.667-42.667 42.667c-23.564 0-42.667-19.103-42.667-42.667s19.103-42.667 42.667-42.667zM682.667 448c23.564 0 42.667 19.103 42.667 42.667s-19.103 42.667-42.667 42.667c-23.564 0-42.667-19.103-42.667-42.667s19.103-42.667 42.667-42.667zM682.667 277.333c23.564 0 42.667 19.103 42.667 42.667s-19.103 42.667-42.667 42.667c-23.564 0-42.667-19.103-42.667-42.667s19.103-42.667 42.667-42.667zM682.667 106.667c23.564 0 42.667 19.103 42.667 42.667s-19.103 42.667-42.667 42.667c-23.564 0-42.667-19.103-42.667-42.667s19.103-42.667 42.667-42.667zM341.333 192c-23.564 0-42.667-19.103-42.667-42.667s19.103-42.667 42.667-42.667h170.667c23.564 0 42.667 19.103 42.667 42.667s-19.103 42.667-42.667 42.667h-170.667zM298.667 789.333v-170.667h426.667v170.667h-426.667z" /><glyph unicode="&#xe967;" d="M774.171 454.661l-29.759-178.553c-0.034-0.206-0.070-0.412-0.108-0.618-4.215-23.184-26.427-38.561-49.611-34.346l-485.071 88.195c-15.983 2.906-28.93 14.637-33.393 30.257l-77.858 272.503c-1.089 3.812-1.642 7.757-1.642 11.721 0 23.564 19.103 42.667 42.667 42.667h585.637l26.163 112.126c5.316 22.785 25.629 38.904 49.026 38.904h88.101c27.804 0 50.343-22.539 50.343-50.343s-22.539-50.343-50.343-50.343h-48.152l-66.001-282.169z" /><glyph unicode="&#xe968;" d="M277.333 64c-35.346 0-64 28.654-64 64s28.654 64 64 64c35.346 0 64-28.654 64-64s-28.654-64-64-64zM661.333 64c-35.346 0-64 28.654-64 64s28.654 64 64 64c35.346 0 64-28.654 64-64s-28.654-64-64-64z" /><glyph unicode="&#xe969;" d="M512 765.353l-180.556-216.667c-15.085-18.102-41.989-20.548-60.092-5.463s-20.548 41.989-5.463 60.092l213.333 256c17.058 20.47 48.497 20.47 65.555 0l213.333-256c15.085-18.102 12.64-45.007-5.463-60.092s-45.007-12.64-60.092 5.463l-180.556 216.667z" /><glyph unicode="&#xe96a;" d="M139.98 576h744.040c23.564 0 42.667-19.103 42.667-42.667 0-3.489-0.428-6.964-1.274-10.348l-90.507-362.030c-14.245-56.981-65.443-96.955-124.178-96.955h-397.455c-58.735 0-109.933 39.974-124.178 96.955l-90.507 362.030c-5.715 22.861 8.184 46.026 31.045 51.741 3.384 0.846 6.86 1.274 10.348 1.274zM512 448c-23.564 0-42.667-19.103-42.667-42.667v-170.667c0-23.564 19.103-42.667 42.667-42.667s42.667 19.103 42.667 42.667v170.667c0 23.564-19.103 42.667-42.667 42.667zM297.162 442.185c-22.761-6.099-36.269-29.495-30.17-52.256l44.172-164.851c6.099-22.761 29.495-36.269 52.256-30.17s36.269 29.495 30.17 52.256l-44.172 164.851c-6.099 22.761-29.495 36.269-52.256 30.17zM726.838 442.185c-22.761 6.099-46.157-7.409-52.256-30.17l-44.172-164.851c-6.099-22.761 7.409-46.157 30.17-52.256s46.157 7.409 52.256 30.17l44.172 164.851c6.099 22.761-7.409 46.157-30.17 52.256z" /><glyph unicode="&#xe96b;" d="M512 765.353l-180.556-216.667c-15.085-18.102-41.989-20.548-60.092-5.463s-20.548 41.989-5.463 60.092l213.333 256c17.058 20.47 48.497 20.47 65.555 0l213.333-256c15.085-18.102 12.64-45.007-5.463-60.092s-45.007-12.64-60.092 5.463l-180.556 216.667z" /><glyph unicode="&#xe96c;" d="M149.333 576h725.333c23.564 0 42.667-19.103 42.667-42.667 0-5.633-1.115-11.21-3.282-16.41l-155.897-374.154c-19.875-47.699-66.48-78.769-118.154-78.769h-256c-51.674 0-98.279 31.070-118.154 78.769l-155.897 374.154c-9.063 21.752 1.223 46.732 22.974 55.795 5.2 2.167 10.777 3.282 16.41 3.282zM512 234.667c47.128 0 85.333 38.205 85.333 85.333s-38.205 85.333-85.333 85.333c-47.128 0-85.333-38.205-85.333-85.333s38.205-85.333 85.333-85.333z" /><glyph unicode="&#xe96d;" d="M576 789.333c35.346 0 64-28.654 64-64v-426.667c0-35.346-28.654-64-64-64s-64 28.654-64 64v426.667c0 35.346 28.654 64 64 64z" /><glyph unicode="&#xe96e;" d="M362.667 576c35.346 0 64-28.654 64-64v-213.333c0-35.346-28.654-64-64-64s-64 28.654-64 64v213.333c0 35.346 28.654 64 64 64z" /><glyph unicode="&#xe96f;" d="M213.333 149.333h640c23.564 0 42.667-19.103 42.667-42.667s-19.103-42.667-42.667-42.667h-682.667c-23.564 0-42.667 19.103-42.667 42.667v682.667c0 23.564 19.103 42.667 42.667 42.667s42.667-19.103 42.667-42.667v-640z" /><glyph unicode="&#xe970;" d="M789.333 490.667c35.346 0 64-28.654 64-64v-128c0-35.346-28.654-64-64-64s-64 28.654-64 64v128c0 35.346 28.654 64 64 64z" /><glyph unicode="&#xe971;" d="M789.333 789.333c35.346 0 64-28.654 64-64v-426.667c0-35.346-28.654-64-64-64s-64 28.654-64 64v426.667c0 35.346 28.654 64 64 64z" /><glyph unicode="&#xe972;" d="M576 576c35.346 0 64-28.654 64-64v-213.333c0-35.346-28.654-64-64-64s-64 28.654-64 64v213.333c0 35.346 28.654 64 64 64z" /><glyph unicode="&#xe973;" d="M213.333 149.333h640c23.564 0 42.667-19.103 42.667-42.667s-19.103-42.667-42.667-42.667h-682.667c-23.564 0-42.667 19.103-42.667 42.667v682.667c0 23.564 19.103 42.667 42.667 42.667s42.667-19.103 42.667-42.667v-640z" /><glyph unicode="&#xe974;" d="M362.667 490.667c35.346 0 64-28.654 64-64v-128c0-35.346-28.654-64-64-64s-64 28.654-64 64v128c0 35.346 28.654 64 64 64z" /><glyph unicode="&#xe975;" d="M362.667 789.333c35.346 0 64-28.654 64-64v-426.667c0-35.346-28.654-64-64-64s-64 28.654-64 64v426.667c0 35.346 28.654 64 64 64z" /><glyph unicode="&#xe976;" d="M576 576c35.346 0 64-28.654 64-64v-213.333c0-35.346-28.654-64-64-64s-64 28.654-64 64v213.333c0 35.346 28.654 64 64 64z" /><glyph unicode="&#xe977;" d="M213.333 149.333h640c23.564 0 42.667-19.103 42.667-42.667s-19.103-42.667-42.667-42.667h-682.667c-23.564 0-42.667 19.103-42.667 42.667v682.667c0 23.564 19.103 42.667 42.667 42.667s42.667-19.103 42.667-42.667v-640z" /><glyph unicode="&#xe978;" d="M789.333 490.667c35.346 0 64-28.654 64-64v-128c0-35.346-28.654-64-64-64s-64 28.654-64 64v128c0 35.346 28.654 64 64 64z" /><glyph unicode="&#xe979;" d="M213.333 149.333h640c23.564 0 42.667-19.103 42.667-42.667s-19.103-42.667-42.667-42.667h-682.667c-23.564 0-42.667 19.103-42.667 42.667v682.667c0 23.564 19.103 42.667 42.667 42.667s42.667-19.103 42.667-42.667v-640z" /><glyph unicode="&#xe97a;" d="M372.46 333.485c-16.116-17.191-43.117-18.062-60.308-1.945s-18.062 43.117-1.945 60.308l160 170.667c15.587 16.626 41.487 18.067 58.823 3.274l126.282-107.761 164.534 208.41c14.601 18.495 41.431 21.652 59.926 7.050s21.652-41.431 7.050-59.926l-192-243.2c-14.997-18.996-42.774-21.728-61.184-6.018l-129.026 110.102-132.151-140.961z" /><glyph unicode="&#xe97b;" d="M213.333 149.333h640c23.564 0 42.667-19.103 42.667-42.667s-19.103-42.667-42.667-42.667h-682.667c-23.564 0-42.667 19.103-42.667 42.667v682.667c0 23.564 19.103 42.667 42.667 42.667s42.667-19.103 42.667-42.667v-640z" /><glyph unicode="&#xe97c;" d="M372.46 669.183c-16.116 17.191-43.117 18.062-60.308 1.945s-18.062-43.117-1.945-60.308l160-170.667c15.587-16.626 41.487-18.067 58.823-3.274l126.282 107.761 164.534-208.41c14.601-18.495 41.431-21.652 59.926-7.050s21.652 41.431 7.050 59.926l-192 243.2c-14.997 18.996-42.774 21.728-61.184 6.018l-129.026-110.102-132.151 140.961z" /><glyph unicode="&#xe97d;" d="M170.772 439.446l383.895-76.779v424.026c168.376-20.996 298.667-164.629 298.667-338.693 0-188.513-152.82-341.333-341.333-341.333-185.653 0-336.688 148.219-341.228 332.779z" /><glyph unicode="&#xe97e;" d="M130.577 532.818c20.767 168.625 164.515 299.182 338.756 299.182v-366.933l-338.756 67.751z" /><glyph unicode="&#xe97f;" d="M170.667 746.667h682.667c47.128 0 85.333-38.205 85.333-85.333v-426.667c0-47.128-38.205-85.333-85.333-85.333h-682.667c-47.128 0-85.333 38.205-85.333 85.333v426.667c0 47.128 38.205 85.333 85.333 85.333z" /><glyph unicode="&#xe980;" d="M85.333 618.667h853.333v-128h-853.333v128z" /><glyph unicode="&#xe981;" d="M725.333 362.667h85.333c23.564 0 42.667-19.103 42.667-42.667s-19.103-42.667-42.667-42.667h-85.333c-23.564 0-42.667 19.103-42.667 42.667s19.103 42.667 42.667 42.667z" /><glyph unicode="&#xe982;" d="M533.333 874.667c23.564 0 42.667-19.103 42.667-42.667v-85.333c0-23.564-19.103-42.667-42.667-42.667s-42.667 19.103-42.667 42.667v85.333c0 23.564 19.103 42.667 42.667 42.667z" /><glyph unicode="&#xe983;" d="M533.333 277.333c23.564 0 42.667-19.103 42.667-42.667v-128c0-23.564-19.103-42.667-42.667-42.667s-42.667 19.103-42.667 42.667v128c0 23.564 19.103 42.667 42.667 42.667z" /><glyph unicode="&#xe984;" d="M661.035 616.789c-11.89 15.133-27.427 27.157-46.613 36.075s-37.696 13.376-55.531 13.376c-9.188 0-18.51-0.811-27.968-2.432s-17.97-4.729-25.536-9.323c-7.566-4.594-13.916-10.539-19.051-17.835s-7.701-16.619-7.701-27.968c0-9.728 2.027-17.835 6.080-24.32s9.998-12.16 17.835-17.024c7.836-4.864 17.159-9.323 27.968-13.376s22.969-8.242 36.48-12.565c19.456-6.485 39.723-13.646 60.8-21.483s40.263-18.24 57.557-31.211c17.294-12.971 31.616-29.049 42.965-48.235s17.024-43.1 17.024-71.744c0-32.967-6.080-61.475-18.24-85.525s-28.508-43.911-49.045-59.584c-20.537-15.673-44.046-27.292-70.528-34.859s-53.774-11.349-81.877-11.349c-41.074 0-80.796 7.161-119.168 21.483s-70.258 34.723-95.659 61.205l90.795 92.416c14.052-17.294 32.562-31.751 55.531-43.371s45.803-17.429 68.501-17.429c10.268 0 20.267 1.081 29.995 3.243s18.24 5.675 25.536 10.539c7.296 4.864 13.106 11.349 17.429 19.456s6.485 17.835 6.485 29.184c0 10.809-2.702 19.996-8.107 27.563s-13.106 14.457-23.104 20.672c-9.998 6.215-22.428 11.89-37.291 17.024s-31.751 10.674-50.667 16.619c-18.375 5.945-36.345 12.971-53.909 21.077s-33.237 18.51-47.019 31.211c-13.781 12.701-24.86 28.103-33.237 46.208s-12.565 40.128-12.565 66.069c0 31.886 6.485 59.179 19.456 81.877s29.995 41.344 51.072 55.936c21.077 14.592 44.857 25.266 71.339 32.021s53.234 10.133 80.256 10.133c32.427 0 65.529-5.945 99.307-17.835s63.367-29.454 88.768-52.693l-88.363-93.227z" /><glyph unicode="&#xe985;" d="M186.104 521.541l21.333 42.667c3.614 7.227 11.001 11.793 19.081 11.793h421.631c11.782 0 21.333-9.551 21.333-21.333 0-3.312-0.771-6.578-2.252-9.541l-21.333-42.667c-3.614-7.227-11.001-11.793-19.081-11.793h-421.631c-11.782 0-21.333 9.551-21.333 21.333 0 3.312 0.771 6.578 2.252 9.541zM624.563 374.459l-21.333-42.667c-3.614-7.227-11.001-11.793-19.081-11.793h-378.964c-11.782 0-21.333 9.551-21.333 21.333 0 3.312 0.771 6.578 2.252 9.541l21.333 42.667c3.614 7.227 11.001 11.793 19.081 11.793h378.964c11.782 0 21.333-9.551 21.333-21.333 0-3.312-0.771-6.578-2.252-9.541z" /><glyph unicode="&#xe986;" d="M741.077 634.965c-16.725 22.699-38.528 39.275-65.408 49.728s-53.163 15.68-78.848 15.68c-32.853 0-62.72-5.973-89.6-17.92s-50.027-28.373-69.44-49.28c-19.413-20.907-34.347-45.397-44.8-73.472s-15.68-58.539-15.68-91.392c0-34.646 5.077-66.304 15.232-94.976s24.64-53.312 43.456-73.92c18.816-20.608 41.365-36.587 67.648-47.936s55.851-17.024 88.704-17.024c34.048 0 64.213 6.72 90.496 20.16s47.488 31.211 63.616 53.312l90.496-63.616c-28.075-35.243-62.421-62.571-103.040-81.984s-88.106-29.12-142.464-29.12c-49.579 0-95.125 8.213-136.64 24.64s-77.205 39.424-107.072 68.992c-29.867 29.568-53.163 64.81-69.888 105.728s-25.088 86.165-25.088 135.744c0 50.774 8.811 96.618 26.432 137.536s41.813 75.712 72.576 104.384c30.763 28.672 67.050 50.773 108.864 66.304s87.21 23.296 136.192 23.296c20.309 0 41.515-1.941 63.616-5.824s43.307-9.856 63.616-17.92c20.309-8.064 39.424-18.069 57.344-30.016s33.152-26.283 45.696-43.008l-86.016-68.096z" /><glyph unicode="&#xe987;" d="M170.667 704h682.667c23.564 0 42.667-19.103 42.667-42.667v-42.667c0-23.564-19.103-42.667-42.667-42.667h-682.667c-23.564 0-42.667 19.103-42.667 42.667v42.667c0 23.564 19.103 42.667 42.667 42.667zM213.333 490.667h213.333c23.564 0 42.667-19.103 42.667-42.667v-298.667c0-23.564-19.103-42.667-42.667-42.667h-213.333c-23.564 0-42.667 19.103-42.667 42.667v298.667c0 23.564 19.103 42.667 42.667 42.667zM597.333 490.667h213.333c23.564 0 42.667-19.103 42.667-42.667v-298.667c0-23.564-19.103-42.667-42.667-42.667h-213.333c-23.564 0-42.667 19.103-42.667 42.667v298.667c0 23.564 19.103 42.667 42.667 42.667z" /><glyph unicode="&#xe988;" d="M616.333 867.501c19.607 13.071 46.097 7.773 59.168-11.834s7.773-46.097-11.834-59.168l-151.667-101.111-151.667 101.111c-19.607 13.071-24.905 39.561-11.834 59.168s39.561 24.905 59.168 11.834l104.333-69.555 104.333 69.555z" /><glyph unicode="&#xe989;" d="M341.333 789.333c23.564 0 42.667-19.103 42.667-42.667v-512h384c23.564 0 42.667-19.103 42.667-42.667s-19.103-42.667-42.667-42.667h-384c-23.564 0-42.667 19.103-42.667 42.667-23.564 0-42.667 19.103-42.667 42.667v469.333h-85.333c-23.564 0-42.667 19.103-42.667 42.667s19.103 42.667 42.667 42.667h128z" /><glyph unicode="&#xe98a;" d="M640 661.333c94.257 0 170.667-76.41 170.667-170.667s-76.41-170.667-170.667-170.667c-94.257 0-170.667 76.41-170.667 170.667s76.41 170.667 170.667 170.667z" /><glyph unicode="&#xe98b;" d="M469.333 192c0-70.692-57.308-128-128-128s-128 57.308-128 128c0 70.692 57.308 128 128 128s128-57.308 128-128z" /><glyph unicode="&#xe98c;" d="M461.768 602.905l81.482-62.019c28.963 38.052 73.679 60.714 122.35 60.714 84.831 0 153.6-68.769 153.6-153.6s-68.769-153.6-153.6-153.6c-43.457 0-83.783 18.003-112.751 49.29l-75.139-69.569c46.761-50.505 113.633-82.12 187.89-82.12 141.385 0 256 114.615 256 256s-114.615 256-256 256c-83.166 0-157.070-39.658-203.832-101.095z" /><glyph unicode="&#xe98d;" d="M358.4 192c-141.385 0-256 114.615-256 256s114.615 256 256 256c141.385 0 256-114.615 256-256s-114.615-256-256-256z" /><glyph unicode="&#xe98e;" d="M165.402 800.185l783.044-209.816c22.761-6.099 36.269-29.495 30.17-52.256l-110.429-412.128c-6.099-22.761-29.495-36.269-52.256-30.17l-783.044 209.816c-22.761 6.099-36.269 29.495-30.17 52.256l110.429 412.128c6.099 22.761 29.495 36.269 52.256 30.17zM446.495 283.149c91.045-24.395 184.628 29.635 209.023 120.68s-29.635 184.628-120.68 209.023c-91.045 24.395-184.628-29.635-209.023-120.68s29.635-184.628 120.68-209.023z" /><glyph unicode="&#xe98f;" d="M85.333 704h810.667c23.564 0 42.667-19.103 42.667-42.667v-426.667c0-23.564-19.103-42.667-42.667-42.667h-810.667c-23.564 0-42.667 19.103-42.667 42.667v426.667c0 23.564 19.103 42.667 42.667 42.667zM490.667 277.333c94.257 0 170.667 76.41 170.667 170.667s-76.41 170.667-170.667 170.667c-94.257 0-170.667-76.41-170.667-170.667s76.41-170.667 170.667-170.667zM490.667 362.667c47.128 0 85.333 38.205 85.333 85.333s-38.205 85.333-85.333 85.333c-47.128 0-85.333-38.205-85.333-85.333s38.205-85.333 85.333-85.333z" /><glyph unicode="&#xe990;" d="M333.867 523.733c-26.667 32-41.6 77.867-41.6 121.6 0 120.533 98.133 227.2 234.667 227.2 132.267 0 232.533-102.4 235.733-229.333h-119.467c0 67.2-46.933 120.533-116.267 120.533-68.267 0-117.333-50.133-117.333-118.4 0-38.027 17.762-71.956 45.554-94.247 1.937-1.553 2.397-113.071 1.38-334.553h292.030c11.782 0 21.333-9.551 21.333-21.333 0-2.642-0.491-5.26-1.447-7.723l-26.097-67.2c-3.186-8.205-11.085-13.61-19.886-13.61h-453.666c-11.782 0-21.333 9.551-21.333 21.333v67.2c0 11.782 9.551 21.333 21.333 21.333h69.333v211.2l-4.267 96z" /><glyph unicode="&#xe991;" d="M186.104 478.874l21.333 42.667c3.614 7.227 11.001 11.793 19.081 11.793h421.631c11.782 0 21.333-9.551 21.333-21.333 0-3.312-0.771-6.578-2.252-9.541l-21.333-42.667c-3.614-7.227-11.001-11.793-19.081-11.793h-421.631c-11.782 0-21.333 9.551-21.333 21.333 0 3.312 0.771 6.578 2.252 9.541z" /><glyph unicode="&#xe992;" glyph-name="Price, 145" d="M150.302 361.442c-29.736 29.914-29.736 78.225 0 108.139l345.176 339.357c14.344 14.102 33.653 22.004 53.768 22.004h275.39c42.357 0 76.694-34.337 76.694-76.694v-274.603c0-20.581-8.272-40.298-22.955-54.719l-344.602-338.434c-14.385-14.401-33.906-22.493-54.261-22.493s-39.876 8.092-54.261 22.493l-274.949 274.949zM722.377 575.295c42.357 0 76.694 34.337 76.694 76.694s-34.337 76.694-76.694 76.694c-42.357 0-76.694-34.337-76.694-76.694s34.337-76.694 76.694-76.694z" /><glyph unicode="&#xe993;" glyph-name="Price1, 245" d="M464.157 749.699l90.51-90.51c1.705-1.705 3.519-3.236 5.419-4.592-23.062-47.677-14.811-106.695 24.751-146.257 49.987-49.987 131.032-49.987 181.019 0s49.987 131.032 0 181.019c-39.563 39.563-98.58 47.813-146.257 24.751-1.356 1.9-2.887 3.713-4.592 5.419l-88.007 88.007c99.977 71.25 239.671 62.028 329.366-27.667 99.974-99.974 99.974-262.064 0-362.039l-392.209-392.209c-33.325-33.325-87.355-33.325-120.68 0l-241.359 241.359c-33.325 33.325-33.325 87.355 0 120.68l362.039 362.039zM373.647 478.17l181.019-181.019c16.662-16.662 16.662-43.677 0-60.34s-43.677-16.662-60.34 0l-181.019 181.019c-16.662 16.662-16.662 43.677 0 60.34s43.677 16.662 60.34 0zM283.138 327.32l120.68-120.68c16.662-16.662 16.662-43.677 0-60.34s-43.677-16.662-60.34 0l-120.68 120.68c-16.662 16.662-16.662 43.677 0 60.34s43.677 16.662 60.34 0z" /><glyph unicode="&#xe994;" d="M228.77 265.541l21.333 42.667c3.614 7.227 11.001 11.793 19.081 11.793h421.631c11.782 0 21.333-9.551 21.333-21.333 0-3.312-0.771-6.578-2.252-9.541l-21.333-42.667c-3.614-7.227-11.001-11.793-19.081-11.793h-421.631c-11.782 0-21.333 9.551-21.333 21.333 0 3.312 0.771 6.578 2.252 9.541z" /><glyph unicode="&#xe995;" d="M341.333 801.451h217.899c39.908 0 75.89-3.598 107.947-10.795s59.534-18.972 82.432-35.328c22.898-16.356 40.562-37.291 52.992-62.805s18.645-56.263 18.645-92.245c0-38.599-7.196-70.983-21.589-97.152s-33.856-47.267-58.389-63.296c-24.533-16.029-53.155-27.641-85.867-34.837s-67.385-10.795-104.021-10.795h-95.189v-287.531h-114.859v694.784zM542.549 498.219c20.281 0 39.58 1.472 57.899 4.416s34.674 8.178 49.067 15.701c14.393 7.524 25.842 17.827 34.347 30.912s12.757 30.094 12.757 51.029c0 20.281-4.252 36.8-12.757 49.557s-19.79 22.734-33.856 29.931c-14.066 7.196-30.094 11.94-48.085 14.229s-36.473 3.435-55.445 3.435h-90.283v-199.211h86.357z" /><glyph unicode="&#xe996;" d="M277.333 277.333h42.667c35.346 0 64-28.654 64-64v-85.333c0-35.346-28.654-64-64-64h-42.667c-35.346 0-64 28.654-64 64v85.333c0 35.346 28.654 64 64 64zM704 277.333h42.667c35.346 0 64-28.654 64-64v-85.333c0-35.346-28.654-64-64-64h-42.667c-35.346 0-64 28.654-64 64v85.333c0 35.346 28.654 64 64 64z" /><glyph unicode="&#xe997;" d="M213.333 789.333h597.333c47.128 0 85.333-38.205 85.333-85.333v-469.333c0-47.128-38.205-85.333-85.333-85.333h-597.333c-47.128 0-85.333 38.205-85.333 85.333v469.333c0 47.128 38.205 85.333 85.333 85.333zM661.333 320c82.475 0 149.333 66.859 149.333 149.333s-66.859 149.333-149.333 149.333c-82.475 0-149.333-66.859-149.333-149.333s66.859-149.333 149.333-149.333zM661.333 405.333c35.346 0 64 28.654 64 64s-28.654 64-64 64c-35.346 0-64-28.654-64-64s28.654-64 64-64zM298.667 618.667v0c23.564 0 42.667-19.103 42.667-42.667v-85.333c0-23.564-19.103-42.667-42.667-42.667v0c-23.564 0-42.667 19.103-42.667 42.667v85.333c0 23.564 19.103 42.667 42.667 42.667z" /><glyph unicode="&#xe998;" d="M684.041 717.345l-438.37-437.697c-27.158-27.116-27.192-71.114-0.076-98.272 0.013-0.013 0.025-0.025 0.038-0.038v0c27.137-27.137 71.135-27.137 98.272 0 0.013 0.013 0.025 0.025 0.038 0.038l437.697 438.37c26.916 26.957 26.899 70.625-0.037 97.561v0c-26.937 26.937-70.604 26.953-97.561 0.037z" /><glyph unicode="&#xe999;" d="M420.571 664.381c0-69.066-55.901-124.952-124.889-124.952s-125.016 55.886-125.016 124.952c0 69.066 56.028 124.952 125.016 124.952s124.889-55.886 124.889-124.952zM853.333 231.619c0-69.066-55.901-124.952-124.889-124.952s-125.016 55.886-125.016 124.952c0 69.193 56.028 124.952 125.016 124.952s124.889-55.76 124.889-124.952z" /><glyph unicode="&#xe99a;" d="M512 105.734l-150.466-72.822-68.454 152.502-162.072 40.933 45.587 160.825-97.844 135.534 138.298 93.896 12.167 166.718 166.298-16.968 116.485 119.892 116.485-119.892 166.298 16.968 12.167-166.718 138.298-93.896-97.844-135.534 45.587-160.825-162.072-40.933-68.454-152.502z" /><glyph unicode="&#xe99b;" d="M601.134 592.958l-244.407-260.219 57.51-57.51 244.407 260.219z" /><glyph unicode="&#xe99c;" d="M463.119 568.517c0-40.528-32.803-73.322-73.322-73.322-40.445 0-73.322 32.794-73.322 73.322s32.877 73.322 73.322 73.322c40.519 0 73.322-32.794 73.322-73.322z" /><glyph unicode="&#xe99d;" d="M634.203 250.788c-40.445 0-73.322 32.794-73.322 73.322 0 40.602 32.877 73.322 73.322 73.322 40.519 0 73.322-32.72 73.322-73.322 0-40.528-32.803-73.322-73.322-73.322z" /><glyph unicode="&#xe99e;" d="M192 661.333h213.333c35.346 0 64-28.654 64-64s-28.654-64-64-64h-213.333c-35.346 0-64 28.654-64 64s28.654 64 64 64zM576 320h213.333c35.346 0 64-28.654 64-64s-28.654-64-64-64h-213.333c-35.346 0-64 28.654-64 64s28.654 64 64 64z" /><glyph unicode="&#xe99f;" d="M725.333 490.667c-70.692 0-128 57.308-128 128s57.308 128 128 128c70.692 0 128-57.308 128-128s-57.308-128-128-128zM256 149.333c-70.692 0-128 57.308-128 128s57.308 128 128 128c70.692 0 128-57.308 128-128s-57.308-128-128-128z" /><glyph unicode="&#xe9a0;" d="M234.667 746.667h554.667c35.346 0 64-28.654 64-64s-28.654-64-64-64h-554.667c-35.346 0-64 28.654-64 64s28.654 64 64 64z" /><glyph unicode="&#xe9a1;" d="M320 490.667h384c35.346 0 64-28.654 64-64s-28.654-64-64-64h-384c-35.346 0-64 28.654-64 64s28.654 64 64 64zM448 234.667h128c35.346 0 64-28.654 64-64s-28.654-64-64-64h-128c-35.346 0-64 28.654-64 64s28.654 64 64 64z" /><glyph unicode="&#xe9a2;" glyph-name="Sort1, 25" d="M234.667 704c35.346 0 64-28.654 64-64v-469.333c0-35.346-28.654-64-64-64s-64 28.654-64 64v469.333c0 35.346 28.654 64 64 64zM490.667 490.667c35.346 0 64-28.654 64-64v-256c0-35.346-28.654-64-64-64s-64 28.654-64 64v256c0 35.346 28.654 64 64 64zM746.667 320c35.346 0 64-28.654 64-64v-85.333c0-35.346-28.654-64-64-64s-64 28.654-64 64v85.333c0 35.346 28.654 64 64 64z" /><glyph unicode="&#xe9a3;" glyph-name="Sort2, 32" d="M789.333 704c35.346 0 64-28.654 64-64v-469.333c0-35.346-28.654-64-64-64s-64 28.654-64 64v469.333c0 35.346 28.654 64 64 64zM533.333 490.667c35.346 0 64-28.654 64-64v-256c0-35.346-28.654-64-64-64s-64 28.654-64 64v256c0 35.346 28.654 64 64 64zM277.333 320c35.346 0 64-28.654 64-64v-85.333c0-35.346-28.654-64-64-64s-64 28.654-64 64v85.333c0 35.346 28.654 64 64 64z" /><glyph unicode="&#xe9a4;" glyph-name="Ticket" d="M172.803 213.969l-61.849 61.849c-16.662 16.662-16.662 43.677 0 60.34l150.849 150.849 60.34-60.34c16.662-16.662 43.677-16.662 60.34 0s16.662 43.677 0 60.34l-60.34 60.34 301.699 301.699c16.662 16.662 43.677 16.662 60.34 0l61.849-61.849c-27.439-41.416-22.914-97.766 13.576-134.256s92.84-41.015 134.256-13.576l61.849-61.849c16.662-16.662 16.662-43.677 0-60.34l-301.699-301.699-60.34 60.34c-16.662 16.662-43.677 16.662-60.34 0s-16.662-43.677 0-60.34l60.34-60.34-150.849-150.849c-16.662-16.662-43.677-16.662-60.34 0l-61.849 61.849c27.439 41.416 22.914 97.766-13.576 134.256s-92.84 41.015-134.256 13.576zM412.654 396.497c-16.662-16.662-16.662-43.677 0-60.34l30.17-30.17c16.662-16.662 43.677-16.662 60.34 0s16.662 43.677 0 60.34l-30.17 30.17c-16.662 16.662-43.677 16.662-60.34 0z" /><glyph unicode="&#xe9a5;" d="M170.667 874.667h256c47.128 0 85.333-38.205 85.333-85.333v-341.333c0-47.128-38.205-85.333-85.333-85.333h-256c-47.128 0-85.333 38.205-85.333 85.333v341.333c0 47.128 38.205 85.333 85.333 85.333z" /><glyph unicode="&#xe9a6;" d="M170.667 704h682.667c47.128 0 85.333-38.205 85.333-85.333v-512c0-47.128-38.205-85.333-85.333-85.333h-682.667c-47.128 0-85.333 38.205-85.333 85.333v512c0 47.128 38.205 85.333 85.333 85.333zM768 277.333c47.128 0 85.333 38.205 85.333 85.333s-38.205 85.333-85.333 85.333c-47.128 0-85.333-38.205-85.333-85.333s38.205-85.333 85.333-85.333z" /><glyph unicode="&#xe9a7;" d="M170.667 789.333h682.667c47.128 0 85.333-38.205 85.333-85.333v-512c0-47.128-38.205-85.333-85.333-85.333h-682.667c-47.128 0-85.333 38.205-85.333 85.333v512c0 47.128 38.205 85.333 85.333 85.333z" /><glyph unicode="&#xe9a8;" d="M789.333 490.667h-554.667c-35.346 0-64-28.654-64-64v-21.333h195.66c11.316 0 22.168-4.495 30.17-12.497l42.667-42.667c19.317-19.317 45.518-30.17 72.837-30.17s53.519 10.852 72.837 30.17l42.667 42.667c8.002 8.002 18.854 12.497 30.17 12.497h195.66v21.333c0 35.346-28.654 64-64 64z" /><glyph unicode="&#xe9a9;" d="M234.667 704c-35.346 0-64-28.654-64-64v-21.333h682.667v21.333c0 35.346-28.654 64-64 64h-554.667z" /><glyph unicode="&#xe9aa;" d="M938.667 426.667c0-35.346-28.654-64-64-64s-64 28.654-64 64c0 35.346 28.654 64 64 64s64-28.654 64-64z" /><glyph unicode="&#xe9ab;" d="M143.647 738.568l659.405 176.687c22.761 6.099 46.157-7.409 52.256-30.17l55.215-206.064c6.099-22.761-7.409-46.157-30.17-52.256l-659.405-176.687c-22.761-6.099-46.157 7.409-52.256 30.17l-55.215 206.064c-6.099 22.761 7.409 46.157 30.17 52.256z" /><glyph unicode="&#xe9ac;" d="M938.667 561.629c-19.397 9.215-41.097 14.371-64 14.371-82.475 0-149.333-66.859-149.333-149.333s66.859-149.333 149.333-149.333c22.903 0 44.603 5.156 64 14.371v-99.704c0-47.128-38.205-85.333-85.333-85.333h-682.667c-47.128 0-85.333 38.205-85.333 85.333v512c0 47.128 38.205 85.333 85.333 85.333h682.667c47.128 0 85.333-38.205 85.333-85.333v-142.371z" /><glyph unicode="&#xe9ad;" glyph-name="Angle-up" d="M286.17 289.83c-16.662-16.662-43.677-16.662-60.34 0s-16.662 43.677 0 60.34l256 256c16.153 16.153 42.162 16.718 59.001 1.282l256-234.667c17.37-15.923 18.544-42.912 2.621-60.283s-42.912-18.544-60.283-2.621l-225.886 207.062-227.113-227.113z" /><glyph unicode="&#xe9ae;" d="M737.83 755.503c16.662 16.662 43.677 16.662 60.34 0s16.662-43.677 0-60.34l-256-256c-16.153-16.153-42.162-16.718-59.001-1.282l-256 234.667c-17.37 15.923-18.544 42.912-2.621 60.283s42.912 18.544 60.283 2.621l225.886-207.062 227.113 227.113z" /><glyph unicode="&#xe9af;" d="M737.83 456.837c16.662 16.662 43.677 16.662 60.34 0s16.662-43.677 0-60.34l-256-256c-16.153-16.153-42.162-16.718-59.001-1.282l-256 234.667c-17.37 15.923-18.544 42.912-2.621 60.283s42.912 18.544 60.283 2.621l225.886-207.062 227.113 227.113z" /><glyph unicode="&#xe9b0;" d="M542.17 673.83c16.662 16.662 16.662 43.677 0 60.34s-43.677 16.662-60.34 0l-256-256c-16.153-16.153-16.718-42.162-1.282-59.001l234.667-256c15.923-17.37 42.912-18.544 60.283-2.621s18.544 42.912 2.621 60.283l-207.062 225.886 227.113 227.113z" /><glyph unicode="&#xe9b1;" d="M840.836 673.83c16.662 16.662 16.662 43.677 0 60.34s-43.677 16.662-60.34 0l-256-256c-16.153-16.153-16.718-42.162-1.282-59.001l234.667-256c15.923-17.37 42.912-18.544 60.283-2.621s18.544 42.912 2.621 60.283l-207.062 225.886 227.113 227.113z" /><glyph unicode="&#xe9b2;" d="M524.497 673.83c-16.662 16.662-16.662 43.677 0 60.34s43.677 16.662 60.34 0l256-256c16.153-16.153 16.718-42.162 1.282-59.001l-234.667-256c-15.923-17.37-42.912-18.544-60.283-2.621s-18.544 42.912-2.621 60.283l207.062 225.886-227.113 227.113z" /><glyph unicode="&#xe9b3;" d="M225.83 673.83c-16.662 16.662-16.662 43.677 0 60.34s43.677 16.662 60.34 0l256-256c16.153-16.153 16.718-42.162 1.282-59.001l-234.667-256c-15.923-17.37-42.912-18.544-60.283-2.621s-18.544 42.912-2.621 60.283l207.062 225.886-227.113 227.113z" /><glyph unicode="&#xe9b4;" d="M737.83 140.497c16.662-16.662 43.677-16.662 60.34 0s16.662 43.677 0 60.34l-256 256c-16.153 16.153-42.162 16.718-59.001 1.282l-256-234.667c-17.37-15.923-18.544-42.912-2.621-60.283s42.912-18.544 60.283-2.621l225.886 207.062 227.113-227.113z" /><glyph unicode="&#xe9b5;" d="M737.83 439.163c16.662-16.662 43.677-16.662 60.34 0s16.662 43.677 0 60.34l-256 256c-16.153 16.153-42.162 16.718-59.001 1.282l-256-234.667c-17.37-15.923-18.544-42.912-2.621-60.283s42.912-18.544 60.283-2.621l225.886 207.062 227.113-227.113z" /><glyph unicode="&#xe9b6;" glyph-name="Angle-down" d="M737.83 606.17c16.662 16.662 43.677 16.662 60.34 0s16.662-43.677 0-60.34l-256-256c-16.153-16.153-42.162-16.718-59.001-1.282l-256 234.667c-17.37 15.923-18.544 42.912-2.621 60.283s42.912 18.544 60.283 2.621l225.886-207.062 227.113 227.113z" /><glyph unicode="&#xe9b7;" glyph-name="Angle-left" d="M670.17 673.83c16.662 16.662 16.662 43.677 0 60.34s-43.677 16.662-60.34 0l-256-256c-16.153-16.153-16.718-42.162-1.282-59.001l234.667-256c15.923-17.37 42.912-18.544 60.283-2.621s18.544 42.912 2.621 60.283l-207.062 225.886 227.113 227.113z" /><glyph unicode="&#xe9b8;" glyph-name="Angle-right" d="M353.83 673.83c-16.662 16.662-16.662 43.677 0 60.34s43.677 16.662 60.34 0l256-256c16.153-16.153 16.718-42.162 1.282-59.001l-234.667-256c-15.923-17.37-42.912-18.544-60.283-2.621s-18.544 42.912-2.621 60.283l207.062 225.886-227.113 227.113z" /><glyph unicode="&#xe9b9;" d="M512 746.667c23.564 0 42.667-19.103 42.667-42.667v-512c0-23.564-19.103-42.667-42.667-42.667s-42.667 19.103-42.667 42.667v512c0 23.564 19.103 42.667 42.667 42.667z" /><glyph unicode="&#xe9ba;" d="M286.17 478.17c-16.662 16.662-43.677 16.662-60.34 0s-16.662-43.677 0-60.34l256-256c16.153-16.153 42.162-16.718 59.001-1.282l256 234.667c17.37 15.923 18.544 42.912 2.621 60.283s-42.912 18.544-60.283 2.621l-225.886-207.062-227.113 227.113z" /><glyph unicode="&#xe9bb;" d="M512 832c23.564 0 42.667-19.103 42.667-42.667v-512c0-23.564-19.103-42.667-42.667-42.667s-42.667 19.103-42.667 42.667v512c0 23.564 19.103 42.667 42.667 42.667z" /><glyph unicode="&#xe9bc;" d="M286.17 503.163c-16.662-16.662-43.677-16.662-60.34 0s-16.662 43.677 0 60.34l256 256c16.153 16.153 42.162 16.718 59.001 1.282l256-234.667c17.37-15.923 18.544-42.912 2.621-60.283s-42.912-18.544-60.283-2.621l-225.886 207.062-227.113-227.113z" /><glyph unicode="&#xe9bd;" d="M170.667 149.333h682.667c23.564 0 42.667-19.103 42.667-42.667s-19.103-42.667-42.667-42.667h-682.667c-23.564 0-42.667 19.103-42.667 42.667s19.103 42.667 42.667 42.667z" /><glyph unicode="&#xe9be;" d="M298.667 448c0 23.564 19.103 42.667 42.667 42.667h512c23.564 0 42.667-19.103 42.667-42.667s-19.103-42.667-42.667-42.667h-512c-23.564 0-42.667 19.103-42.667 42.667z" /><glyph unicode="&#xe9bf;" d="M170.667 832c23.564 0 42.667-19.103 42.667-42.667v-682.667c0-23.564-19.103-42.667-42.667-42.667s-42.667 19.103-42.667 42.667v682.667c0 23.564 19.103 42.667 42.667 42.667z" /><glyph unicode="&#xe9c0;" d="M567.163 222.17c-16.662-16.662-16.662-43.677 0-60.34s43.677-16.662 60.34 0l256 256c16.153 16.153 16.718 42.162 1.282 59.001l-234.667 256c-15.923 17.37-42.912 18.544-60.283 2.621s-18.544-42.912-2.621-60.283l207.062-225.886-227.113-227.113z" /><glyph unicode="&#xe9c1;" d="M725.333 448c0 23.564-19.103 42.667-42.667 42.667h-512c-23.564 0-42.667-19.103-42.667-42.667s19.103-42.667 42.667-42.667h512c23.564 0 42.667 19.103 42.667 42.667z" /><glyph unicode="&#xe9c2;" d="M853.333 832c23.564 0 42.667-19.103 42.667-42.667v-682.667c0-23.564-19.103-42.667-42.667-42.667s-42.667 19.103-42.667 42.667v682.667c0 23.564 19.103 42.667 42.667 42.667z" /><glyph unicode="&#xe9c3;" d="M456.837 222.17c16.662-16.662 16.662-43.677 0-60.34s-43.677-16.662-60.34 0l-256 256c-16.153 16.153-16.718 42.162-1.282 59.001l234.667 256c15.923 17.37 42.912 18.544 60.283 2.621s18.544-42.912 2.621-60.283l-207.062-225.886 227.113-227.113z" /><glyph unicode="&#xe9c4;" d="M512 661.333c23.564 0 42.667-19.103 42.667-42.667v-512c0-23.564-19.103-42.667-42.667-42.667s-42.667 19.103-42.667 42.667v512c0 23.564 19.103 42.667 42.667 42.667z" /><glyph unicode="&#xe9c5;" d="M286.17 392.837c-16.662 16.662-43.677 16.662-60.34 0s-16.662-43.677 0-60.34l256-256c16.153-16.153 42.162-16.718 59.001-1.282l256 234.667c17.37 15.923 18.544 42.912 2.621 60.283s-42.912 18.544-60.283 2.621l-225.886-207.062-227.113 227.113z" /><glyph unicode="&#xe9c6;" d="M170.667 832h682.667c23.564 0 42.667-19.103 42.667-42.667s-19.103-42.667-42.667-42.667h-682.667c-23.564 0-42.667 19.103-42.667 42.667s19.103 42.667 42.667 42.667z" /><glyph unicode="&#xe9c7;" d="M810.667 448c0 23.564-19.103 42.667-42.667 42.667h-512c-23.564 0-42.667-19.103-42.667-42.667s19.103-42.667 42.667-42.667h512c23.564 0 42.667 19.103 42.667 42.667z" /><glyph unicode="&#xe9c8;" d="M542.17 222.17c16.662-16.662 16.662-43.677 0-60.34s-43.677-16.662-60.34 0l-256 256c-16.153 16.153-16.718 42.162-1.282 59.001l234.667 256c15.923 17.37 42.912 18.544 60.283 2.621s18.544-42.912 2.621-60.283l-207.062-225.886 227.113-227.113z" /><glyph unicode="&#xe9c9;" d="M213.333 448c0 23.564 19.103 42.667 42.667 42.667h512c23.564 0 42.667-19.103 42.667-42.667s-19.103-42.667-42.667-42.667h-512c-23.564 0-42.667 19.103-42.667 42.667z" /><glyph unicode="&#xe9ca;" d="M481.83 222.17c-16.662-16.662-16.662-43.677 0-60.34s43.677-16.662 60.34 0l256 256c16.153 16.153 16.718 42.162 1.282 59.001l-234.667 256c-15.923 17.37-42.912 18.544-60.283 2.621s-18.544-42.912-2.621-60.283l207.062-225.886-227.113-227.113z" /><glyph unicode="&#xe9cb;" d="M341.333 490.667h341.333c23.564 0 42.667-19.103 42.667-42.667s-19.103-42.667-42.667-42.667h-341.333c-23.564 0-42.667 19.103-42.667 42.667s19.103 42.667 42.667 42.667z" /><glyph unicode="&#xe9cc;" d="M652.497 673.83c-16.662 16.662-16.662 43.677 0 60.34s43.677 16.662 60.34 0l256-256c16.153-16.153 16.718-42.162 1.282-59.001l-234.667-256c-15.923-17.37-42.912-18.544-60.283-2.621s-18.544 42.912-2.621 60.283l207.062 225.886-227.113 227.113z" /><glyph unicode="&#xe9cd;" d="M371.503 222.17c16.662-16.662 16.662-43.677 0-60.34s-43.677-16.662-60.34 0l-256 256c-16.153 16.153-16.718 42.162-1.282 59.001l234.667 256c15.923 17.37 42.912 18.544 60.283 2.621s18.544-42.912 2.621-60.283l-207.062-225.886 227.113-227.113z" /><glyph unicode="&#xe9ce;" d="M469.333 277.333v341.333c0 23.564 19.103 42.667 42.667 42.667s42.667-19.103 42.667-42.667v-341.333c0-23.564-19.103-42.667-42.667-42.667s-42.667 19.103-42.667 42.667z" /><glyph unicode="&#xe9cf;" d="M286.17 588.497c-16.662-16.662-43.677-16.662-60.34 0s-16.662 43.677 0 60.34l256 256c16.153 16.153 42.162 16.718 59.001 1.282l256-234.667c17.37-15.923 18.544-42.912 2.621-60.283s-42.912-18.544-60.283-2.621l-225.886 207.062-227.113-227.113z" /><glyph unicode="&#xe9d0;" d="M737.83 307.503c16.662 16.662 43.677 16.662 60.34 0s16.662-43.677 0-60.34l-256-256c-16.153-16.153-42.162-16.718-59.001-1.282l-256 234.667c-17.37 15.923-18.544 42.912-2.621 60.283s42.912 18.544 60.283 2.621l225.886-207.062 227.113 227.113z" /><glyph unicode="&#xe9d1;" d="M512 832c23.564 0 42.667-19.103 42.667-42.667v-512c0-23.564-19.103-42.667-42.667-42.667s-42.667 19.103-42.667 42.667v512c0 23.564 19.103 42.667 42.667 42.667z" /><glyph unicode="&#xe9d2;" d="M286.17 563.503c-16.662 16.662-43.677 16.662-60.34 0s-16.662-43.677 0-60.34l256-256c16.153-16.153 42.162-16.718 59.001-1.282l256 234.667c17.37 15.923 18.544 42.912 2.621 60.283s-42.912 18.544-60.283 2.621l-225.886-207.062-227.113 227.113z" /><glyph unicode="&#xe9d3;" d="M170.667 149.333h682.667c23.564 0 42.667-19.103 42.667-42.667s-19.103-42.667-42.667-42.667h-682.667c-23.564 0-42.667 19.103-42.667 42.667s19.103 42.667 42.667 42.667z" /><glyph unicode="&#xe9d4;" d="M896 448c0 23.564-19.103 42.667-42.667 42.667h-512c-23.564 0-42.667-19.103-42.667-42.667s19.103-42.667 42.667-42.667h512c23.564 0 42.667 19.103 42.667 42.667z" /><glyph unicode="&#xe9d5;" d="M170.667 832c23.564 0 42.667-19.103 42.667-42.667v-682.667c0-23.564-19.103-42.667-42.667-42.667s-42.667 19.103-42.667 42.667v682.667c0 23.564 19.103 42.667 42.667 42.667z" /><glyph unicode="&#xe9d6;" d="M627.503 222.17c16.662-16.662 16.662-43.677 0-60.34s-43.677-16.662-60.34 0l-256 256c-16.153 16.153-16.718 42.162-1.282 59.001l234.667 256c15.923 17.37 42.912 18.544 60.283 2.621s18.544-42.912 2.621-60.283l-207.062-225.886 227.113-227.113z" /><glyph unicode="&#xe9d7;" d="M128 448c0 23.564 19.103 42.667 42.667 42.667h512c23.564 0 42.667-19.103 42.667-42.667s-19.103-42.667-42.667-42.667h-512c-23.564 0-42.667 19.103-42.667 42.667z" /><glyph unicode="&#xe9d8;" d="M853.333 832c23.564 0 42.667-19.103 42.667-42.667v-682.667c0-23.564-19.103-42.667-42.667-42.667s-42.667 19.103-42.667 42.667v682.667c0 23.564 19.103 42.667 42.667 42.667z" /><glyph unicode="&#xe9d9;" d="M396.497 222.17c-16.662-16.662-16.662-43.677 0-60.34s43.677-16.662 60.34 0l256 256c16.153 16.153 16.718 42.162 1.282 59.001l-234.667 256c-15.923 17.37-42.912 18.544-60.283 2.621s-18.544-42.912-2.621-60.283l207.062-225.886-227.113-227.113z" /><glyph unicode="&#xe9da;" d="M512 661.333c23.564 0 42.667-19.103 42.667-42.667v-512c0-23.564-19.103-42.667-42.667-42.667s-42.667 19.103-42.667 42.667v512c0 23.564 19.103 42.667 42.667 42.667z" /><glyph unicode="&#xe9db;" d="M286.17 332.497c-16.662-16.662-43.677-16.662-60.34 0s-16.662 43.677 0 60.34l256 256c16.153 16.153 42.162 16.718 59.001 1.282l256-234.667c17.37-15.923 18.544-42.912 2.621-60.283s-42.912-18.544-60.283-2.621l-225.886 207.062-227.113-227.113z" /><glyph unicode="&#xe9dc;" d="M170.667 832h682.667c23.564 0 42.667-19.103 42.667-42.667s-19.103-42.667-42.667-42.667h-682.667c-23.564 0-42.667 19.103-42.667 42.667s19.103 42.667 42.667 42.667z" /><glyph unicode="&#xe9dd;" d="M512 746.667c23.564 0 42.667-19.103 42.667-42.667v-512c0-23.564-19.103-42.667-42.667-42.667s-42.667 19.103-42.667 42.667v512c0 23.564 19.103 42.667 42.667 42.667z" /><glyph unicode="&#xe9de;" d="M286.17 417.83c-16.662-16.662-43.677-16.662-60.34 0s-16.662 43.677 0 60.34l256 256c16.153 16.153 42.162 16.718 59.001 1.282l256-234.667c17.37-15.923 18.544-42.912 2.621-60.283s-42.912-18.544-60.283-2.621l-225.886 207.062-227.113-227.113z" /><glyph unicode="&#xe9df;" glyph-name="Check" d="M756.823 688.966c15.261 17.954 42.188 20.138 60.142 4.876s20.138-42.188 4.876-60.142l-362.667-426.667c-15.501-18.236-42.967-20.157-60.856-4.256l-192 170.667c-17.612 15.655-19.198 42.624-3.543 60.236s42.624 19.198 60.236 3.543l159.396-141.686 334.415 393.429z" /><glyph unicode="&#xe9e0;" d="M270.641 266.981l422.378 422.378c16.662 16.662 43.677 16.662 60.34 0s16.662-43.677 0-60.34l-422.378-422.378c-16.662-16.662-43.677-16.662-60.34 0s-16.662 43.677 0 60.34z" /><glyph unicode="&#xe9e1;" d="M330.981 689.359l422.378-422.378c16.662-16.662 16.662-43.677 0-60.34s-43.677-16.662-60.34 0l-422.378 422.378c-16.662 16.662-16.662 43.677 0 60.34s43.677 16.662 60.34 0z" /><glyph unicode="&#xe9e2;" d="M884.823 731.633c15.261 17.954 42.188 20.138 60.142 4.876s20.138-42.188 4.876-60.142l-362.667-426.667c-15.501-18.236-42.967-20.157-60.856-4.256l-192 170.667c-17.612 15.655-19.198 42.624-3.543 60.236s42.624 19.198 60.236 3.543l159.396-141.686 334.415 393.429z" /><glyph unicode="&#xe9e3;" d="M671.49 688.966c15.261 17.954 42.188 20.138 60.142 4.876s20.138-42.188 4.876-60.142l-362.667-426.667c-15.501-18.236-42.967-20.157-60.856-4.256l-192 170.667c-17.612 15.655-19.198 42.624-3.543 60.236s42.624 19.198 60.236 3.543l159.396-141.686 334.415 393.429z" /><glyph unicode="&#xe9e4;" d="M512 789.333c23.564 0 42.667-19.103 42.667-42.667v-341.333c0-23.564-19.103-42.667-42.667-42.667s-42.667 19.103-42.667 42.667v341.333c0 23.564 19.103 42.667 42.667 42.667z" /><glyph unicode="&#xe9e5;" d="M286.17 435.503c-16.662 16.662-43.677 16.662-60.34 0s-16.662-43.677 0-60.34l256-256c16.153-16.153 42.162-16.718 59.001-1.282l256 234.667c17.37 15.923 18.544 42.912 2.621 60.283s-42.912 18.544-60.283 2.621l-225.886-207.062-227.113 227.113z" /><glyph unicode="&#xe9e6;" d="M315.896 230.562c-16.662 16.662-16.662 43.677 0 60.34l362.039 362.039c16.662 16.662 43.677 16.662 60.34 0s16.662-43.677 0-60.34l-362.039-362.039c-16.662-16.662-43.677-16.662-60.34 0z" /><glyph unicode="&#xe9e7;" d="M677.934 273.229c23.564 0 42.667-19.103 42.667-42.667s-19.103-42.667-42.667-42.667h-362.039c-22.843 0-41.634 17.992-42.626 40.813l-15.085 346.954c-1.024 23.542 17.231 43.456 40.773 44.48s43.456-17.231 44.48-40.773l13.31-306.14h321.187z" /><glyph unicode="&#xe9e8;" d="M708.104 230.562c-16.662-16.662-43.677-16.662-60.34 0l-362.039 362.039c-16.662 16.662-16.662 43.677 0 60.34s43.677 16.662 60.34 0l362.039-362.039c16.662-16.662 16.662-43.677 0-60.34z" /><glyph unicode="&#xe9e9;" d="M665.438 592.601c0 23.564 19.103 42.667 42.667 42.667s42.667-19.103 42.667-42.667v-362.039c0-22.843-17.992-41.634-40.813-42.626l-346.954-15.085c-23.542-1.024-43.456 17.231-44.48 40.773s17.231 43.456 40.773 44.48l306.14 13.31v321.187z" /><glyph unicode="&#xe9ea;" d="M298.667 704c0 23.564 19.103 42.667 42.667 42.667h426.667c23.564 0 42.667-19.103 42.667-42.667s-19.103-42.667-42.667-42.667h-426.667c-23.564 0-42.667 19.103-42.667 42.667z" /><glyph unicode="&#xe9eb;" d="M414.17 606.17c16.662-16.662 16.662-43.677 0-60.34s-43.677-16.662-60.34 0l-128 128c-16.662 16.662-16.662 43.677 0 60.34l128 128c16.662 16.662 43.677 16.662 60.34 0s16.662-43.677 0-60.34l-97.83-97.83 97.83-97.83z" /><glyph unicode="&#xe9ec;" d="M725.333 192c0 23.564-19.103 42.667-42.667 42.667h-426.667c-23.564 0-42.667-19.103-42.667-42.667s19.103-42.667 42.667-42.667h426.667c23.564 0 42.667 19.103 42.667 42.667z" /><glyph unicode="&#xe9ed;" d="M609.83 94.17c-16.662-16.662-16.662-43.677 0-60.34s43.677-16.662 60.34 0l128 128c16.662 16.662 16.662 43.677 0 60.34l-128 128c-16.662 16.662-43.677 16.662-60.34 0s-16.662-43.677 0-60.34l97.83-97.83-97.83-97.83z" /><glyph unicode="&#xe9ee;" d="M584.837 350.17c16.662-16.662 16.662-43.677 0-60.34s-43.677-16.662-60.34 0l-256 256c-16.153 16.153-16.718 42.162-1.282 59.001l234.667 256c15.923 17.37 42.912 18.544 60.283 2.621s18.544-42.912 2.621-60.283l-207.062-225.886 227.113-227.113z" /><glyph unicode="&#xe9ef;" d="M490.667 618.667c-23.564 0-42.667-19.103-42.667-42.667s19.103-42.667 42.667-42.667h277.333c23.564 0 42.667-19.103 42.667-42.667v-428.441c0-23.564 19.103-42.667 42.667-42.667s42.667 19.103 42.667 42.667v428.441c0 70.692-57.308 128-128 128h-277.333z" /><glyph unicode="&#xe9f0;" d="M853.333 448c0 23.564-19.103 42.667-42.667 42.667h-341.333c-23.564 0-42.667-19.103-42.667-42.667s19.103-42.667 42.667-42.667h341.333c23.564 0 42.667 19.103 42.667 42.667z" /><glyph unicode="&#xe9f1;" d="M542.17 222.17c16.662-16.662 16.662-43.677 0-60.34s-43.677-16.662-60.34 0l-256 256c-16.153 16.153-16.718 42.162-1.282 59.001l234.667 256c15.923 17.37 42.912 18.544 60.283 2.621s18.544-42.912 2.621-60.283l-207.062-225.886 227.113-227.113z" /><glyph unicode="&#xe9f2;" glyph-name="Minus1" d="M213.333 490.667h597.333c23.564 0 42.667-19.103 42.667-42.667s-19.103-42.667-42.667-42.667h-597.333c-23.564 0-42.667 19.103-42.667 42.667s19.103 42.667 42.667 42.667z" /><glyph unicode="&#xe9f3;" d="M213.333 490.667h597.333c23.564 0 42.667-19.103 42.667-42.667s-19.103-42.667-42.667-42.667h-597.333c-23.564 0-42.667 19.103-42.667 42.667s19.103 42.667 42.667 42.667z" /><glyph unicode="&#xe9f4;" d="M554.667 746.667v-597.333c0-23.564-19.103-42.667-42.667-42.667s-42.667 19.103-42.667 42.667v597.333c0 23.564 19.103 42.667 42.667 42.667s42.667-19.103 42.667-42.667z" /><glyph unicode="&#xe9f5;" d="M567.163 350.17c-16.662-16.662-16.662-43.677 0-60.34s43.677-16.662 60.34 0l256 256c16.153 16.153 16.718 42.162 1.282 59.001l-234.667 256c-15.923 17.37-42.912 18.544-60.283 2.621s-18.544-42.912-2.621-60.283l207.062-225.886-227.113-227.113z" /><glyph unicode="&#xe9f6;" d="M661.333 618.667c23.564 0 42.667-19.103 42.667-42.667s-19.103-42.667-42.667-42.667h-277.333c-23.564 0-42.667-19.103-42.667-42.667v-428.441c0-23.564-19.103-42.667-42.667-42.667s-42.667 19.103-42.667 42.667v428.441c0 70.692 57.308 128 128 128h277.333z" /><glyph unicode="&#xe9f7;" d="M170.667 448c0 23.564 19.103 42.667 42.667 42.667h298.667c23.564 0 42.667-19.103 42.667-42.667s-19.103-42.667-42.667-42.667h-298.667c-23.564 0-42.667 19.103-42.667 42.667z" /><glyph unicode="&#xe9f8;" d="M481.83 222.17c-16.662-16.662-16.662-43.677 0-60.34s43.677-16.662 60.34 0l256 256c16.153 16.153 16.718 42.162 1.282 59.001l-234.667 256c-15.923 17.37-42.912 18.544-60.283 2.621s-18.544-42.912-2.621-60.283l207.062-225.886-227.113-227.113z" /><glyph unicode="&#xe9f9;" d="M341.333 661.333c-23.564 0-42.667 19.103-42.667 42.667s19.103 42.667 42.667 42.667h341.333c94.257 0 170.667-76.41 170.667-170.667s-76.41-170.667-170.667-170.667h-341.333c-47.128 0-85.333-38.205-85.333-85.333s38.205-85.333 85.333-85.333h384c23.564 0 42.667-19.103 42.667-42.667s-19.103-42.667-42.667-42.667h-384c-94.257 0-170.667 76.41-170.667 170.667s76.41 170.667 170.667 170.667h341.333c47.128 0 85.333 38.205 85.333 85.333s-38.205 85.333-85.333 85.333h-341.333z" /><glyph unicode="&#xe9fa;" d="M414.17 606.17c16.662-16.662 16.662-43.677 0-60.34s-43.677-16.662-60.34 0l-128 128c-16.662 16.662-16.662 43.677 0 60.34l128 128c16.662 16.662 43.677 16.662 60.34 0s16.662-43.677 0-60.34l-97.83-97.83 97.83-97.83z" /><glyph unicode="&#xe9fb;" d="M609.83 94.17c-16.662-16.662-16.662-43.677 0-60.34s43.677-16.662 60.34 0l128 128c16.662 16.662 16.662 43.677 0 60.34l-128 128c-16.662 16.662-43.677 16.662-60.34 0s-16.662-43.677 0-60.34l97.83-97.83-97.83-97.83z" /><glyph unicode="&#xe9fc;" d="M640 448c0-23.564-19.103-42.667-42.667-42.667h-426.667c-23.564 0-42.667 19.103-42.667 42.667s19.103 42.667 42.667 42.667h426.667c23.564 0 42.667-19.103 42.667-42.667z" /><glyph unicode="&#xe9fd;" d="M426.926 661.333c0-23.564-19.094-42.667-42.648-42.667s-42.648 19.103-42.648 42.667v42.667c0 94.257 76.377 170.667 170.593 170.667h255.852c94.216 0 170.593-76.41 170.593-170.667v-512c0-94.257-76.377-170.667-170.593-170.667h-256.148c-94.216 0-170.593 76.41-170.593 170.667v42.667c0 23.564 19.094 42.667 42.648 42.667s42.648-19.103 42.648-42.667v-42.667c0-47.128 38.188-85.333 85.296-85.333h256.148c47.108 0 85.296 38.205 85.296 85.333v512c0 47.128-38.188 85.333-85.296 85.333h-255.852c-47.108 0-85.296-38.205-85.296-85.333v-42.667z" /><glyph unicode="&#xe9fe;" d="M524.497 545.83c-16.662 16.662-16.662 43.677 0 60.34s43.677 16.662 60.34 0l128-128c16.662-16.662 16.662-43.677 0-60.34l-128-128c-16.662-16.662-43.677-16.662-60.34 0s-16.662 43.677 0 60.34l97.83 97.83-97.83 97.83z" /><glyph unicode="&#xe9ff;" d="M597.37 661.333c0-23.564 19.094-42.667 42.648-42.667s42.648 19.103 42.648 42.667v42.667c0 94.257-76.377 170.667-170.593 170.667h-255.852c-94.216 0-170.593-76.41-170.593-170.667v-512c0-94.257 76.377-170.667 170.593-170.667h256.148c94.216 0 170.593 76.41 170.593 170.667v42.667c0 23.564-19.094 42.667-42.648 42.667s-42.648-19.103-42.648-42.667v-42.667c0-47.128-38.188-85.333-85.296-85.333h-256.148c-47.108 0-85.296 38.205-85.296 85.333v512c0 47.128 38.188 85.333 85.296 85.333h255.852c47.108 0 85.296-38.205 85.296-85.333v-42.667z" /><glyph unicode="&#xea00;" d="M853.333 448c0-23.564-19.103-42.667-42.667-42.667h-426.667c-23.564 0-42.667 19.103-42.667 42.667s19.103 42.667 42.667 42.667h426.667c23.564 0 42.667-19.103 42.667-42.667z" /><glyph unicode="&#xea01;" d="M737.83 545.83c-16.662 16.662-16.662 43.677 0 60.34s43.677 16.662 60.34 0l128-128c16.662-16.662 16.662-43.677 0-60.34l-128-128c-16.662-16.662-43.677-16.662-60.34 0s-16.662 43.677 0 60.34l97.83 97.83-97.83 97.83z" /><glyph unicode="&#xea02;" d="M512 533.333c23.564 0 42.667-19.103 42.667-42.667v-341.333c0-23.564-19.103-42.667-42.667-42.667s-42.667 19.103-42.667 42.667v341.333c0 23.564 19.103 42.667 42.667 42.667z" /><glyph unicode="&#xea03;" d="M286.17 417.83c-16.662-16.662-43.677-16.662-60.34 0s-16.662 43.677 0 60.34l256 256c16.153 16.153 42.162 16.718 59.001 1.282l256-234.667c17.37-15.923 18.544-42.912 2.621-60.283s-42.912-18.544-60.283-2.621l-225.886 207.062-227.113-227.113z" /><glyph unicode="&#xea04;" d="M256 234.667c-23.564 0-42.667 19.103-42.667 42.667v426.667c0 23.564 19.103 42.667 42.667 42.667s42.667-19.103 42.667-42.667v-426.667c0-23.564-19.103-42.667-42.667-42.667z" /><glyph unicode="&#xea05;" d="M353.83 350.17c16.662 16.662 43.677 16.662 60.34 0s16.662-43.677 0-60.34l-128-128c-16.662-16.662-43.677-16.662-60.34 0l-128 128c-16.662 16.662-16.662 43.677 0 60.34s43.677 16.662 60.34 0l97.83-97.83 97.83 97.83z" /><glyph unicode="&#xea06;" d="M768 661.333c-23.564 0-42.667-19.103-42.667-42.667v-426.667c0-23.564 19.103-42.667 42.667-42.667s42.667 19.103 42.667 42.667v426.667c0 23.564-19.103 42.667-42.667 42.667z" /><glyph unicode="&#xea07;" d="M865.83 545.83c16.662-16.662 43.677-16.662 60.34 0s16.662 43.677 0 60.34l-128 128c-16.662 16.662-43.677 16.662-60.34 0l-128-128c-16.662-16.662-16.662-43.677 0-60.34s43.677-16.662 60.34 0l97.83 97.83 97.83-97.83z" /><glyph unicode="&#xea08;" d="M315.896 622.771c16.662 16.662 43.677 16.662 60.34 0l362.039-362.039c16.662-16.662 16.662-43.677 0-60.34s-43.677-16.662-60.34 0l-362.039 362.039c-16.662 16.662-16.662 43.677 0 60.34z" /><glyph unicode="&#xea09;" d="M358.562 260.732c0-23.564-19.103-42.667-42.667-42.667s-42.667 19.103-42.667 42.667v362.039c0 22.843 17.992 41.634 40.813 42.626l346.954 15.085c23.542 1.024 43.456-17.231 44.48-40.773s-17.231-43.456-40.773-44.48l-306.14-13.31v-321.187z" /><glyph unicode="&#xea0a;" d="M708.104 622.771c16.662-16.662 16.662-43.677 0-60.34l-362.039-362.039c-16.662-16.662-43.677-16.662-60.34 0s-16.662 43.677 0 60.34l362.039 362.039c16.662 16.662 43.677 16.662 60.34 0z" /><glyph unicode="&#xea0b;" d="M346.066 580.104c-23.564 0-42.667 19.103-42.667 42.667s19.103 42.667 42.667 42.667h362.039c22.843 0 41.634-17.992 42.626-40.813l15.085-346.954c1.024-23.542-17.231-43.456-40.773-44.48s-43.456 17.231-44.48 40.773l-13.31 306.14h-321.187z" /><glyph unicode="&#xea0c;" glyph-name="Waiting" d="M832 512h64c35.346 0 64-28.654 64-64s-28.654-64-64-64h-64c-35.346 0-64 28.654-64 64s28.654 64 64 64zM685.255 709.49l45.255 45.255c24.994 24.994 65.516 24.994 90.51 0s24.994-65.516 0-90.51l-45.255-45.255c-24.994-24.994-65.516-24.994-90.51 0s-24.994 65.516 0 90.51zM685.255 184.235c-24.994 24.994-24.994 65.516 0 90.51s65.516 24.994 90.51 0l45.255-45.255c24.994-24.994 24.994-65.516 0-90.51s-65.516-24.994-90.51 0l-45.255 45.255zM128 512h64c35.346 0 64-28.654 64-64s-28.654-64-64-64h-64c-35.346 0-64 28.654-64 64s28.654 64 64 64zM512 896c35.346 0 64-28.654 64-64v-64c0-35.346-28.654-64-64-64s-64 28.654-64 64v64c0 35.346 28.654 64 64 64zM512 192c35.346 0 64-28.654 64-64v-64c0-35.346-28.654-64-64-64s-64 28.654-64 64v64c0 35.346 28.654 64 64 64zM205.255 754.745c24.994 24.994 65.516 24.994 90.51 0l45.255-45.255c24.994-24.994 24.994-65.516 0-90.51s-65.516-24.994-90.51 0l-45.255 45.255c-24.994 24.994-24.994 65.516 0 90.51zM205.255 138.981c-24.994 24.994-24.994 65.516 0 90.51l45.255 45.255c24.994 24.994 65.516 24.994 90.51 0s24.994-65.516 0-90.51l-45.255-45.255c-24.994-24.994-65.516-24.994-90.51 0z" /><glyph unicode="&#xea0d;" d="M383.084 157.837c-7.604-52.861-61.602-93.837-127.084-93.837-70.692 0-128 47.756-128 106.667s57.308 106.667 128 106.667c14.96 0 29.321-2.139 42.667-6.070v435.65c0 21.878 13.644 41.218 33.683 47.744l245.333 75.031c30.909 10.066 62.317-13.998 62.317-47.744 0-33.347 0-58.357 0-75.031 0-25.010-23.417-40.983-42.667-45.58-27.696-6.614-98.807-20.836-213.333-42.667v-450.185c0-3.831-0.311-7.377-0.916-10.645z" /><glyph unicode="&#xea0e;" d="M682.667 405.333v85.333c0 23.564 19.103 42.667 42.667 42.667s42.667-19.103 42.667-42.667v-85.333h85.333c23.564 0 42.667-19.103 42.667-42.667s-19.103-42.667-42.667-42.667h-85.333v-85.333c0-23.564-19.103-42.667-42.667-42.667s-42.667 19.103-42.667 42.667v85.333h-85.333c-23.564 0-42.667 19.103-42.667 42.667s19.103 42.667 42.667 42.667h85.333z" /><glyph unicode="&#xea0f;" d="M341.333 64h341.333l-170.667 213.333z" /><glyph unicode="&#xea10;" d="M742.526 339.238l-65.837-54.289c-40.32 48.896-100.103 77.717-164.689 77.717-64.375 0-123.981-28.631-164.305-77.253l-65.684 54.474c56.367 67.967 139.945 108.113 229.989 108.113 90.341 0 174.164-40.411 230.526-108.762zM873.308 448.901l-65.664-54.498c-72.555 87.419-179.847 138.931-295.645 138.931-115.638 0-222.796-51.368-295.353-138.58l-65.599 54.576c88.601 106.497 219.693 169.338 360.952 169.338 141.456 0 272.71-63.016 361.308-169.766zM993.726 545.259l-68.776-50.514c-95.924 130.603-247.836 209.255-412.95 209.255-167.395 0-321.159-80.857-416.743-214.488l-69.406 49.645c111.438 155.797 290.919 250.177 486.149 250.177 192.567 0 369.891-91.808 481.726-244.074z" /><glyph unicode="&#xea11;" d="M298.667 320c23.564 0 42.667-19.103 42.667-42.667s-19.103-42.667-42.667-42.667h-42.667c-70.692 0-128 57.308-128 128v298.667c0 70.692 57.308 128 128 128h512c70.692 0 128-57.308 128-128v-298.667c0-70.692-57.308-128-128-128h-42.667c-23.564 0-42.667 19.103-42.667 42.667s19.103 42.667 42.667 42.667h42.667c23.564 0 42.667 19.103 42.667 42.667v298.667c0 23.564-19.103 42.667-42.667 42.667h-512c-23.564 0-42.667-19.103-42.667-42.667v-298.667c0-23.564 19.103-42.667 42.667-42.667h42.667z" /><glyph unicode="&#xea12;" d="M341.333 106.667h341.333l-170.667 213.333z" /><glyph unicode="&#xea13;" d="M732.644 180.173l-287.603 250.862c-8.879 7.745-9.799 21.221-2.054 30.1 0.623 0.714 1.292 1.385 2.004 2.010l287.603 252.444c8.855 7.772 22.334 6.895 30.106-1.96 3.416-3.892 5.3-8.894 5.3-14.073v-503.306c0-11.782-9.551-21.333-21.333-21.333-5.156 0-10.137 1.867-14.023 5.256z" /><glyph unicode="&#xea14;" d="M298.667 704h42.667c23.564 0 42.667-19.103 42.667-42.667v-426.667c0-23.564-19.103-42.667-42.667-42.667h-42.667c-23.564 0-42.667 19.103-42.667 42.667v426.667c0 23.564 19.103 42.667 42.667 42.667z" /><glyph unicode="&#xea15;" d="M732.644 180.173l-287.603 250.862c-8.879 7.745-9.799 21.221-2.054 30.1 0.623 0.714 1.292 1.385 2.004 2.010l287.603 252.444c8.855 7.772 22.334 6.895 30.106-1.96 3.416-3.892 5.3-8.894 5.3-14.073v-503.306c0-11.782-9.551-21.333-21.333-21.333-5.156 0-10.137 1.867-14.023 5.256z" /><glyph unicode="&#xea16;" d="M476.644 180.173l-287.603 250.862c-8.879 7.745-9.799 21.221-2.054 30.1 0.623 0.714 1.292 1.385 2.004 2.010l287.603 252.444c8.855 7.772 22.334 6.895 30.106-1.96 3.416-3.892 5.3-8.894 5.3-14.073v-503.306c0-11.782-9.551-21.333-21.333-21.333-5.156 0-10.137 1.867-14.023 5.256z" /><glyph unicode="&#xea17;" d="M512 64c-212.077 0-384 171.923-384 384s171.923 384 384 384c212.077 0 384-171.923 384-384s-171.923-384-384-384zM512 320c70.692 0 128 57.308 128 128s-57.308 128-128 128c-70.692 0-128-57.308-128-128s57.308-128 128-128z" /><glyph unicode="&#xea18;" d="M554.667 448c0-23.564-19.103-42.667-42.667-42.667s-42.667 19.103-42.667 42.667c0 23.564 19.103 42.667 42.667 42.667s42.667-19.103 42.667-42.667z" /><glyph unicode="&#xea19;" d="M896 448c0-212.077-171.923-384-384-384s-384 171.923-384 384c0 212.077 171.923 384 384 384s384-171.923 384-384z" /><glyph unicode="&#xea1a;" d="M476.085 282.739l170.346 148.585c8.879 7.745 9.799 21.221 2.054 30.1-0.623 0.714-1.292 1.385-2.004 2.010l-170.346 149.522c-8.855 7.772-22.334 6.895-30.106-1.96-3.416-3.892-5.3-8.894-5.3-14.073v-298.106c0-11.782 9.551-21.333 21.333-21.333 5.156 0 10.137 1.867 14.023 5.256z" /><glyph unicode="&#xea1b;" d="M806.459 408.949l-256.127 298.718c-7.669 8.944-21.137 9.978-30.081 2.309-0.811-0.695-1.568-1.45-2.266-2.259l-257.742-298.718c-7.697-8.921-6.705-22.392 2.216-30.088 3.874-3.342 8.82-5.181 13.936-5.181h513.868c11.782 0 21.333 9.551 21.333 21.333 0 5.094-1.823 10.019-5.138 13.886z" /><glyph unicode="&#xea1c;" d="M256 256v-85.333c0-11.782 9.551-21.333 21.333-21.333h512c11.782 0 21.333 9.551 21.333 21.333v85.333c0 11.782-9.551 21.333-21.333 21.333h-512c-11.782 0-21.333-9.551-21.333-21.333z" /><glyph unicode="&#xea1d;" d="M618.667 789.333c35.346 0 64-28.654 64-64v-554.667c0-35.346-28.654-64-64-64s-64 28.654-64 64v554.667c0 35.346 28.654 64 64 64z" /><glyph unicode="&#xea1e;" d="M405.333 576c35.346 0 64-28.654 64-64v-341.333c0-35.346-28.654-64-64-64s-64 28.654-64 64v341.333c0 35.346 28.654 64 64 64z" /><glyph unicode="&#xea1f;" d="M832 490.667c35.346 0 64-28.654 64-64v-256c0-35.346-28.654-64-64-64s-64 28.654-64 64v256c0 35.346 28.654 64 64 64z" /><glyph unicode="&#xea20;" d="M192 405.333c35.346 0 64-28.654 64-64v-170.667c0-35.346-28.654-64-64-64s-64 28.654-64 64v170.667c0 35.346 28.654 64 64 64z" /><glyph unicode="&#xea21;" d="M291.356 180.173l287.603 250.862c8.879 7.745 9.799 21.221 2.054 30.1-0.623 0.714-1.292 1.385-2.004 2.010l-287.603 252.444c-8.855 7.772-22.334 6.895-30.106-1.96-3.416-3.892-5.3-8.894-5.3-14.073v-503.306c0-11.782 9.551-21.333 21.333-21.333 5.156 0 10.137 1.867 14.023 5.256z" /><glyph unicode="&#xea22;" d="M547.356 180.173l287.603 250.862c8.879 7.745 9.799 21.221 2.054 30.1-0.623 0.714-1.292 1.385-2.004 2.010l-287.603 252.444c-8.855 7.772-22.334 6.895-30.106-1.96-3.416-3.892-5.3-8.894-5.3-14.073v-503.306c0-11.782 9.551-21.333 21.333-21.333 5.156 0 10.137 1.867 14.023 5.256z" /><glyph unicode="&#xea23;" d="M170.667 576h682.667c47.128 0 85.333-38.205 85.333-85.333v-384c0-47.128-38.205-85.333-85.333-85.333h-682.667c-47.128 0-85.333 38.205-85.333 85.333v384c0 47.128 38.205 85.333 85.333 85.333z" /><glyph unicode="&#xea24;" d="M234.667 746.667h554.667c11.782 0 21.333-9.551 21.333-21.333v-42.667c0-11.782-9.551-21.333-21.333-21.333h-554.667c-11.782 0-21.333 9.551-21.333 21.333v42.667c0 11.782 9.551 21.333 21.333 21.333z" /><glyph unicode="&#xea25;" d="M320 917.333h384c11.782 0 21.333-9.551 21.333-21.333v-42.667c0-11.782-9.551-21.333-21.333-21.333h-384c-11.782 0-21.333 9.551-21.333 21.333v42.667c0 11.782 9.551 21.333 21.333 21.333z" /><glyph unicode="&#xea26;" d="M462.222 106.667c-43.201 0-78.222 29.184-78.222 65.185s35.021 65.185 78.222 65.185c9.142 0 17.919-1.307 26.074-3.709v180.897c0 13.37 8.338 25.189 20.584 29.177l149.926 45.852c18.889 6.151 38.083-8.554 38.083-29.177v-45.852c0-15.284-14.31-25.045-26.074-27.855-16.926-4.042-60.382-12.733-130.37-26.074v-189.78c0-2.341-0.19-4.508-0.56-6.505-4.647-32.304-37.645-57.345-77.662-57.345z" /><glyph unicode="&#xea27;" d="M149.333 21.333h725.333c35.346 0 64 28.654 64 64v469.333c0 35.346-28.654 64-64 64h-448l-109.255 109.255c-12.002 12.002-28.281 18.745-45.255 18.745h-122.824c-35.346 0-64-28.654-64-64v-597.333c0-35.346 28.654-64 64-64z" /><glyph unicode="&#xea28;" d="M462.222 106.667c-43.201 0-78.222 29.184-78.222 65.185s35.021 65.185 78.222 65.185c9.142 0 17.919-1.307 26.074-3.709v180.897c0 13.37 8.338 25.189 20.584 29.177l149.926 45.852c18.889 6.151 38.083-8.554 38.083-29.177v-45.852c0-15.284-14.31-25.045-26.074-27.855-16.926-4.042-60.382-12.733-130.37-26.074v-189.78c0-2.341-0.19-4.508-0.56-6.505-4.647-32.304-37.645-57.345-77.662-57.345z" /><glyph unicode="&#xea29;" d="M810.667 746.667h-426.667c-23.564 0-42.667-19.103-42.667-42.667s19.103-42.667 42.667-42.667h426.667v-565.333c0-17.673-13.372-32-29.867-32h-462.933c-57.732 0-104.533 50.144-104.533 112v544c0 61.856 46.801 112 104.533 112h462.933c16.495 0 29.867-14.327 29.867-32v-53.333z" /><glyph unicode="&#xea2a;" d="M462.222 149.333c-43.201 0-78.222 29.184-78.222 65.185s35.021 65.185 78.222 65.185c9.142 0 17.919-1.307 26.074-3.709v180.897c0 13.37 8.338 25.189 20.584 29.177l149.926 45.852c18.889 6.151 38.083-8.554 38.083-29.177v-45.852c0-15.284-14.31-25.045-26.074-27.855-16.926-4.042-60.382-12.733-130.37-26.074v-189.78c0-2.341-0.19-4.508-0.56-6.505-4.647-32.304-37.645-57.345-77.662-57.345z" /><glyph unicode="&#xea2b;" d="M256 832h512c47.128 0 85.333-38.205 85.333-85.333v-597.333c0-47.128-38.205-85.333-85.333-85.333h-512c-47.128 0-85.333 38.205-85.333 85.333v597.333c0 47.128 38.205 85.333 85.333 85.333zM234.667 746.667c-11.782 0-21.333-9.551-21.333-21.333v-42.667c0-11.782 9.551-21.333 21.333-21.333h42.667c11.782 0 21.333 9.551 21.333 21.333v42.667c0 11.782-9.551 21.333-21.333 21.333h-42.667zM746.667 746.667c-11.782 0-21.333-9.551-21.333-21.333v-42.667c0-11.782 9.551-21.333 21.333-21.333h42.667c11.782 0 21.333 9.551 21.333 21.333v42.667c0 11.782-9.551 21.333-21.333 21.333h-42.667zM234.667 576c-11.782 0-21.333-9.551-21.333-21.333v-42.667c0-11.782 9.551-21.333 21.333-21.333h42.667c11.782 0 21.333 9.551 21.333 21.333v42.667c0 11.782-9.551 21.333-21.333 21.333h-42.667zM746.667 576c-11.782 0-21.333-9.551-21.333-21.333v-42.667c0-11.782 9.551-21.333 21.333-21.333h42.667c11.782 0 21.333 9.551 21.333 21.333v42.667c0 11.782-9.551 21.333-21.333 21.333h-42.667zM234.667 405.333c-11.782 0-21.333-9.551-21.333-21.333v-42.667c0-11.782 9.551-21.333 21.333-21.333h42.667c11.782 0 21.333 9.551 21.333 21.333v42.667c0 11.782-9.551 21.333-21.333 21.333h-42.667zM746.667 405.333c-11.782 0-21.333-9.551-21.333-21.333v-42.667c0-11.782 9.551-21.333 21.333-21.333h42.667c11.782 0 21.333 9.551 21.333 21.333v42.667c0 11.782-9.551 21.333-21.333 21.333h-42.667zM746.667 234.667c-11.782 0-21.333-9.551-21.333-21.333v-42.667c0-11.782 9.551-21.333 21.333-21.333h42.667c11.782 0 21.333 9.551 21.333 21.333v42.667c0 11.782-9.551 21.333-21.333 21.333h-42.667zM234.667 234.667c-11.782 0-21.333-9.551-21.333-21.333v-42.667c0-11.782 9.551-21.333 21.333-21.333h42.667c11.782 0 21.333 9.551 21.333 21.333v42.667c0 11.782-9.551 21.333-21.333 21.333h-42.667z" /><glyph unicode="&#xea2c;" d="M484.359 338.25l111.133 75.966c9.727 6.649 12.222 19.924 5.573 29.651-1.484 2.17-3.356 4.048-5.522 5.538l-111.133 76.445c-9.707 6.677-22.99 4.221-29.667-5.486-2.447-3.557-3.757-7.773-3.757-12.090v-152.411c0-11.782 9.551-21.333 21.333-21.333 4.296 0 8.492 1.297 12.039 3.721z" /><glyph unicode="&#xea2d;" d="M512 64c-212.077 0-384 171.923-384 384s171.923 384 384 384c212.077 0 384-171.923 384-384s-171.923-384-384-384zM502.411 392.837c23.564 0 42.667 19.103 42.667 42.667s-19.103 42.667-42.667 42.667c-23.564 0-42.667-19.103-42.667-42.667s19.103-42.667 42.667-42.667zM478.871 571.639c45.522 12.198 72.537 58.989 60.34 104.512s-58.989 72.537-104.512 60.34c-45.522-12.198-72.537-58.989-60.34-104.512s58.989-72.537 104.512-60.34zM589.301 159.51c45.522 12.198 72.537 58.989 60.34 104.512s-58.989 72.537-104.512 60.34c-45.522-12.198-72.537-58.989-60.34-104.512s58.989-72.537 104.512-60.34zM328.022 310.36c45.522 12.198 72.537 58.989 60.34 104.512s-58.989 72.537-104.512 60.34c-45.522-12.198-72.537-58.989-60.34-104.512s58.989-72.537 104.512-60.34zM740.15 420.789c45.522 12.198 72.537 58.989 60.34 104.512s-58.989 72.537-104.512 60.34c-45.522-12.198-72.537-58.989-60.34-104.512s58.989-72.537 104.512-60.34z" /><glyph unicode="&#xea2e;" d="M753.38 149.333h142.62c23.564 0 42.667-19.103 42.667-42.667s-19.103-42.667-42.667-42.667h-384c91.447 0 175.429 31.966 241.38 85.333z" /><glyph unicode="&#xea2f;" glyph-name="Music1" d="M341.333 232.96v385.707c0 18.662 12.128 35.158 29.94 40.724l384 106.667c27.474 8.586 55.393-11.94 55.393-40.724v-490.667c0-0.008 0-0.016 0-0.024-0.017-47.117-47.766-85.309-106.667-85.309-58.91 0-106.667 38.205-106.667 85.333s47.756 85.333 106.667 85.333c7.306 0 14.44-0.588 21.333-1.707v300.374l-298.667-80v-389.333c0-0.008 0-0.016 0-0.024-0.017-47.117-47.766-85.309-106.667-85.309-58.91 0-106.667 38.205-106.667 85.333s47.756 85.333 106.667 85.333c7.306 0 14.44-0.588 21.333-1.707z" /><glyph unicode="&#xea30;" d="M637.002 576h130.998c141.385 0 256-114.615 256-256s-114.615-256-256-256h-384c-6.661 0-13.263 0.254-19.796 0.754-7.559-0.5-15.185-0.754-22.87-0.754-188.513 0-341.333 152.82-341.333 341.333s152.82 341.333 341.333 341.333c126.342 0 236.651-68.642 295.669-170.667z" /><glyph unicode="&#xea31;" d="M451.556 170.667c-37.31 0-67.556 25.942-67.556 57.942s30.246 57.942 67.556 57.942c7.896 0 15.475-1.162 22.519-3.297v160.797c0 11.884 7.201 22.39 17.777 25.935l129.481 40.758c16.313 5.468 32.89-7.604 32.89-25.935v-40.758c0-13.586-12.359-22.263-22.519-24.76-14.618-3.593-52.148-11.319-112.593-23.177v-168.693c0-2.081-0.164-4.007-0.484-5.782-4.013-28.715-32.512-50.973-67.072-50.973z" /><glyph unicode="&#xea32;" glyph-name="Music-note" d="M511.084 157.837c-7.604-52.861-61.602-93.837-127.084-93.837-70.692 0-128 47.756-128 106.667s57.308 106.667 128 106.667c14.96 0 29.321-2.139 42.667-6.070v435.65c0 21.878 13.644 41.218 33.683 47.744l245.333 75.031c30.909 10.066 62.317-13.998 62.317-47.744 0-33.347 0-58.357 0-75.031 0-25.010-23.417-40.983-42.667-45.58-27.696-6.614-98.807-20.836-213.333-42.667v-450.185c0-3.831-0.311-7.377-0.916-10.645z" /><glyph unicode="&#xea33;" d="M750.327 448l-60.34 60.34c-16.662 16.662-16.662 43.677 0 60.34s43.677 16.662 60.34 0l60.34-60.34 60.34 60.34c16.662 16.662 43.677 16.662 60.34 0s16.662-43.677 0-60.34l-60.34-60.34 60.34-60.34c16.662-16.662 16.662-43.677 0-60.34s-43.677-16.662-60.34 0l-60.34 60.34-60.34-60.34c-16.662-16.662-43.677-16.662-60.34 0s-16.662 43.677 0 60.34l60.34 60.34z" /><glyph unicode="&#xea34;" d="M298.667 277.333l-144.735 28.947c-39.887 7.977-68.598 42.999-68.598 83.676v116.087c0 40.677 28.711 75.699 68.598 83.676l144.735 28.947 140.497 140.497c16.662 16.662 43.677 16.662 60.34 0 8.002-8.002 12.497-18.854 12.497-30.17v-561.987c0-23.564-19.103-42.667-42.667-42.667-11.316 0-22.168 4.495-30.17 12.497l-140.497 140.497z" /><glyph unicode="&#xea35;" d="M291.356 180.173l287.603 250.862c8.879 7.745 9.799 21.221 2.054 30.1-0.623 0.714-1.292 1.385-2.004 2.010l-287.603 252.444c-8.855 7.772-22.334 6.895-30.106-1.96-3.416-3.892-5.3-8.894-5.3-14.073v-503.306c0-11.782 9.551-21.333 21.333-21.333 5.156 0 10.137 1.867 14.023 5.256z" /><glyph unicode="&#xea36;" d="M725.333 704h-42.667c-23.564 0-42.667-19.103-42.667-42.667v-426.667c0-23.564 19.103-42.667 42.667-42.667h42.667c23.564 0 42.667 19.103 42.667 42.667v426.667c0 23.564-19.103 42.667-42.667 42.667z" /><glyph unicode="&#xea37;" glyph-name="Pause" d="M341.333 704h85.333c23.564 0 42.667-19.103 42.667-42.667v-426.667c0-23.564-19.103-42.667-42.667-42.667h-85.333c-23.564 0-42.667 19.103-42.667 42.667v426.667c0 23.564 19.103 42.667 42.667 42.667zM597.333 704h85.333c23.564 0 42.667-19.103 42.667-42.667v-426.667c0-23.564-19.103-42.667-42.667-42.667h-85.333c-23.564 0-42.667 19.103-42.667 42.667v426.667c0 23.564 19.103 42.667 42.667 42.667z" /><glyph unicode="&#xea38;" glyph-name="Play" d="M419.356 180.173l287.603 250.862c8.879 7.745 9.799 21.221 2.054 30.1-0.623 0.714-1.292 1.385-2.004 2.010l-287.603 252.444c-8.855 7.772-22.334 6.895-30.106-1.96-3.416-3.892-5.3-8.894-5.3-14.073v-503.306c0-11.782 9.551-21.333 21.333-21.333 5.156 0 10.137 1.867 14.023 5.256z" /><glyph unicode="&#xea39;" d="M383.084 157.837c-7.604-52.861-61.602-93.837-127.084-93.837-70.692 0-128 47.756-128 106.667s57.308 106.667 128 106.667c14.96 0 29.321-2.139 42.667-6.070v435.65c0 21.878 13.644 41.218 33.683 47.744l245.333 75.031c30.909 10.066 62.317-13.998 62.317-47.744 0-33.347 0-58.357 0-75.031 0-25.010-23.417-40.983-42.667-45.58-27.696-6.614-98.807-20.836-213.333-42.667v-450.185c0-3.831-0.311-7.377-0.916-10.645z" /><glyph unicode="&#xea3a;" d="M682.667 576h170.667c23.564 0 42.667-19.103 42.667-42.667s-19.103-42.667-42.667-42.667h-170.667c-23.564 0-42.667 19.103-42.667 42.667s19.103 42.667 42.667 42.667zM597.333 405.333h256c23.564 0 42.667-19.103 42.667-42.667s-19.103-42.667-42.667-42.667h-256c-23.564 0-42.667 19.103-42.667 42.667s19.103 42.667 42.667 42.667zM597.333 234.667h256c23.564 0 42.667-19.103 42.667-42.667s-19.103-42.667-42.667-42.667h-256c-23.564 0-42.667 19.103-42.667 42.667s19.103 42.667 42.667 42.667z" /><glyph unicode="&#xea3b;" d="M490.667 746.667h298.667c35.346 0 64-28.654 64-64s-28.654-64-64-64h-298.667c-35.346 0-64 28.654-64 64s28.654 64 64 64zM234.667 234.667h554.667c35.346 0 64-28.654 64-64s-28.654-64-64-64h-554.667c-35.346 0-64 28.654-64 64s28.654 64 64 64zM234.667 490.667h554.667c35.346 0 64-28.654 64-64s-28.654-64-64-64h-554.667c-35.346 0-64 28.654-64 64s28.654 64 64 64z" /><glyph unicode="&#xea3c;" d="M206.023 558.613l122.653 106.984c8.879 7.745 9.799 21.221 2.054 30.1-0.623 0.714-1.292 1.385-2.004 2.010l-122.653 107.659c-8.855 7.772-22.334 6.895-30.106-1.96-3.416-3.892-5.3-8.894-5.3-14.073v-214.644c0-11.782 9.551-21.333 21.333-21.333 5.156 0 10.137 1.867 14.023 5.256z" /><glyph unicode="&#xea3d;" glyph-name="Rec" d="M512 277.333c94.257 0 170.667 76.41 170.667 170.667s-76.41 170.667-170.667 170.667c-94.257 0-170.667-76.41-170.667-170.667s76.41-170.667 170.667-170.667zM512 106.667c-188.513 0-341.333 152.82-341.333 341.333s152.82 341.333 341.333 341.333c188.513 0 341.333-152.82 341.333-341.333s-152.82-341.333-341.333-341.333z" /><glyph unicode="&#xea3e;" d="M512 618.667h-170.667c-94.257 0-170.667-76.41-170.667-170.667v-42.667c0-70.692 57.308-128 128-128v-85.333c-117.821 0-213.333 95.513-213.333 213.333v42.667c0 141.385 114.615 256 256 256h170.667v54.272c0 4.601 1.488 9.080 4.241 12.766 7.051 9.44 20.419 11.376 29.858 4.326l121.9-91.049c1.659-1.239 3.13-2.714 4.364-4.377 7.022-9.461 5.045-22.823-4.416-29.845l-121.9-90.478c-3.677-2.729-8.135-4.203-12.715-4.203-11.782 0-21.333 9.551-21.333 21.333v41.922z" /><glyph unicode="&#xea3f;" d="M514.488 277.333h168.178c94.257 0 170.667 76.41 170.667 170.667v42.667c0 70.692-57.308 128-128 128v85.333c117.821 0 213.333-95.513 213.333-213.333v-42.667c0-141.385-114.615-256-256-256h-168.178v-41.922c0-11.782-9.551-21.333-21.333-21.333-4.579 0-9.037 1.474-12.715 4.203l-121.9 90.478c-9.461 7.022-11.438 20.384-4.416 29.845 1.234 1.663 2.705 3.138 4.364 4.377l121.9 91.049c9.44 7.051 22.808 5.114 29.858-4.326 2.754-3.687 4.241-8.165 4.241-12.766v-54.272z" /><glyph unicode="&#xea40;" d="M938.536 439.75c-4.355-137.567-117.245-247.75-255.87-247.75h-168.178v-41.922c0-11.782-9.551-21.333-21.333-21.333-4.579 0-9.037 1.474-12.715 4.203l-121.9 90.478c-9.461 7.022-11.438 20.384-4.416 29.845 1.234 1.663 2.705 3.138 4.364 4.377l121.9 91.049c9.44 7.051 22.808 5.114 29.858-4.326 2.754-3.687 4.241-8.165 4.241-12.766v-54.272h168.178c69.397 0 129.119 41.419 155.795 100.886 37.758 13.239 71.784 34.417 100.074 61.531z" /></font>
</defs>
</svg>
